<?xml version="1.0" standalone="no"?>
<!DOCTYPE svg PUBLIC "-//W3C//DTD SVG 1.1//EN" "http://www.w3.org/Graphics/SVG/1.1/DTD/svg11.dtd" >
<svg xmlns="http://www.w3.org/2000/svg" xmlns:xlink="http://www.w3.org/1999/xlink" version="1.1">
<metadata>
Created by FontForge 20170924 at Fri Oct 13 23:40:18 1995
 By www-data
URW Software, Copyright 1994 by URW
</metadata>
<defs>
<font id="CastleT-Book" horiz-adv-x="1024" >
  <font-face 
    font-family="CastleT"
    font-weight="400"
    font-stretch="normal"
    units-per-em="2048"
    panose-1="2 14 6 2 5 7 6 2 2 4"
    ascent="1700"
    descent="-348"
    x-height="1066"
    cap-height="1365"
    bbox="-217 -512 2264 1861"
    underline-thickness="126"
    underline-position="-239"
    unicode-range="U+0020-FB04"
  />
<missing-glyph horiz-adv-x="558" 
d="M56 0v1365h446v-1365h-446zM446 56v1253h-334v-1253h334z" />
    <glyph glyph-name=".notdef" horiz-adv-x="558" 
d="M56 0v1365h446v-1365h-446zM446 56v1253h-334v-1253h334z" />
    <glyph glyph-name="glyph1" horiz-adv-x="0" 
 />
    <glyph glyph-name="glyph2" horiz-adv-x="558" 
 />
    <glyph glyph-name="space" unicode=" " horiz-adv-x="558" 
 />
    <glyph glyph-name="exclam" unicode="!" horiz-adv-x="564" 
d="M196 356l-36 950q-2 42 -10 59h256q-7 -20 -9 -59l-36 -950h-165zM279 223q56 0 93 -30q43 -35 43 -89q0 -53 -43 -88q-37 -30 -94 -30t-94 30q-43 36 -43 88q0 54 43 89q37 30 95 30z" />
    <glyph glyph-name="quotedbl" unicode="&#x22;" horiz-adv-x="644" 
d="M283 1365l-33 -463h-89l-33 463h155zM516 1365l-33 -463h-89l-33 463h155z" />
    <glyph glyph-name="numbersign" unicode="#" horiz-adv-x="1043" 
d="M957 546l-16 -117h-181l-61 -429h-162l60 429h-212l-60 -429h-163l60 429h-194l16 117h195l42 298h-195l17 117h194l57 404h162l-56 -404h212l57 404h162l-56 -404h180l-16 -117h-181l-42 -298h181zM656 844h-213l-42 -298h213z" />
    <glyph glyph-name="dollar" unicode="$" horiz-adv-x="982" 
d="M545 1277v-458l18 -9q171 -81 229 -132q123 -107 123 -278q0 -89 -37 -172t-102 -140q-89 -78 -231 -99v-171h-104v166q-73 0 -128 9q-104 19 -246 93l45 160q113 -100 212 -130q54 -17 117 -16v508q-23 12 -60 29q-165 81 -237 170q-67 83 -67 201q0 120 69 214
q99 136 295 161v150h104v-146h23q130 0 279 -75l-43 -140q-143 98 -259 105zM441 1266q-74 -25 -112.5 -74t-38.5 -117q0 -104 103 -174q20 -14 48 -30v395zM545 118q153 61 153 222q0 102 -80 168q-25 21 -73 48v-438z" />
    <glyph glyph-name="percent" unicode="%" horiz-adv-x="1603" 
d="M400 1385q63 0 124 -31.5t105 -85.5q87 -110 87 -269q0 -154 -87 -268q-42 -54 -104 -85t-130 -31q-138 0 -231 114q-86 107 -86 269q0 166 86 271q95 116 236 116zM393 1294q-69 0 -112 -75q-43 -76 -43 -209q0 -149 46 -234q38 -70 112 -70q72 0 109 68q51 93 51 225
q0 130 -49 221q-39 74 -114 74zM439 0l610 1365h115l-610 -1365h-115zM1209 750q64 0 125 -31t105 -86q87 -110 87 -268q0 -155 -87 -269q-42 -54 -104 -85t-130 -31q-138 0 -231 115q-86 106 -86 268q0 166 86 271q95 116 235 116zM1203 659q-69 0 -112 -75
q-43 -77 -43 -210q0 -148 46 -233q38 -70 111 -70t110 68q51 93 51 225q0 129 -49 221q-40 74 -114 74z" />
    <glyph glyph-name="ampersand" unicode="&#x26;" horiz-adv-x="1192" 
d="M813 130q-54 -43 -94 -69q-124 -81 -280 -81q-155 0 -252 91q-116 108 -116 273q0 125 76 226q54 73 203 148q16 8 77 37q-57 89 -74 125q-30 60 -30 130q0 141 111 222q84 60 200 60q124 0 199 -78q61 -64 61 -163q0 -125 -77 -201q-46 -44 -147 -95l254 -386
q103 125 150 253l90 -115q-72 -120 -179 -234l140 -214q14 -23 43 -59h-273zM482 660q-82 -40 -128 -85q-76 -74 -76 -194q0 -117 73 -195q67 -71 175 -71q101 0 180 58q20 15 55 48zM616 835q51 30 74 47q82 59 82 166q0 52 -26 86q-35 47 -94 47q-48 0 -85 -33
q-43 -40 -43 -102q0 -66 46 -143q15 -24 46 -68z" />
    <glyph glyph-name="quotesingle" unicode="'" horiz-adv-x="412" 
d="M283 1365l-33 -463h-89l-33 463h155z" />
    <glyph glyph-name="parenleft" unicode="(" horiz-adv-x="667" 
d="M404 1518l68 -58q-49 -143 -71 -220q-88 -299 -88 -580q0 -365 159 -799l-68 -58q-111 147 -189 326q-121 275 -121 533q0 288 147 581q83 167 163 275z" />
    <glyph glyph-name="parenright" unicode=")" horiz-adv-x="667" 
d="M255 1518q92 -125 185 -319q125 -263 125 -537q0 -277 -139 -573q-73 -156 -171 -286l-68 58q159 433 159 799q0 279 -88 580q-23 81 -71 220z" />
    <glyph glyph-name="asterisk" unicode="*" horiz-adv-x="692" 
d="M137 912l-66 106l207 85l-207 82l66 109l173 -134l-27 219h125l-26 -219l173 134l65 -109l-207 -82l200 -97l-63 -99l-168 133l26 -220h-125l30 219z" />
    <glyph glyph-name="plus" unicode="+" horiz-adv-x="1043" 
d="M458 620h-355v126h355v343h126v-343h356v-126h-356v-343h-126v343z" />
    <glyph glyph-name="comma" unicode="," horiz-adv-x="535" 
d="M228 233l177 -74l-220 -402l-132 56z" />
    <glyph glyph-name="hyphen" unicode="-" horiz-adv-x="483" 
d="M0 477l47 161h436l-45 -161h-438z" />
    <glyph glyph-name="period" unicode="." horiz-adv-x="535" 
d="M269 223q56 0 93 -30q43 -35 43 -89q0 -53 -43 -88q-37 -30 -94 -30t-94 30q-43 36 -43 88q0 54 43 89q37 30 95 30z" />
    <glyph glyph-name="slash" unicode="/" horiz-adv-x="786" 
d="M-7 -236l579 1601h141l-579 -1601h-141z" />
    <glyph glyph-name="zero" unicode="0" horiz-adv-x="1043" 
d="M527 1385q253 0 356 -202q55 -108 68 -228t13 -266q0 -244 -28 -361q-85 -348 -412 -348q-256 0 -359 195q-60 113 -73 240q-12 118 -12 267q0 262 30 374q51 190 177 273q86 56 240 56zM519 1279q-57 0 -106.5 -40t-70.5 -103q-29 -86 -33 -197q-5 -112 -5 -233
q0 -255 11 -347q10 -88 27.5 -137.5t50.5 -82.5q54 -53 130 -53q91 0 148 75q52 68 64 252q5 77 5 266q0 257 -12 345q-21 152 -95 214q-50 41 -114 41z" />
    <glyph glyph-name="one" unicode="1" horiz-adv-x="1043" 
d="M433 1181l-244 -112v81q0 29 -9 58l486 179q-8 -25 -8 -62v-1259q0 -33 8 -66h-241q8 30 8 66v1115z" />
    <glyph glyph-name="two" unicode="2" horiz-adv-x="1043" 
d="M121 148q189 170 299 317q224 300 224 549q0 112 -58 178q-62 71 -176 71q-113 0 -235 -79l-21 138q62 22 99 33q100 30 215 30q176 0 280 -88q56 -48 89 -118.5t33 -142.5q0 -89 -33 -181.5t-109 -212.5q-136 -218 -315 -377l-87 -78q-10 -9 -27 -24h496q68 1 93 10
v-173h-776q9 27 9 59v89z" />
    <glyph glyph-name="three" unicode="3" horiz-adv-x="1043" 
d="M153 213q119 -113 251 -113q102 0 164 77q64 78 64 207q0 132 -69 208q-67 74 -159 74q-8 0 -42 -3q-5 0 -15 -1v130q29 -2 50 -2q100 0 151 63q59 74 59 187q0 91 -43 151q-54 76 -157 76q-98 0 -201 -81l-13 144q125 55 257 55q188 0 285 -97q92 -93 92 -237
q0 -80 -32.5 -150t-89.5 -110q-45 -32 -133 -64q97 -22 161 -72q125 -97 125 -271q0 -188 -121 -302q-108 -102 -292 -102q-163 0 -326 90z" />
    <glyph glyph-name="four" unicode="4" horiz-adv-x="1043" 
d="M578 378h-519v154q19 20 44 61l446 712q25 40 30 60h228q-8 -32 -8 -65v-771h93q40 1 65 9v-165q-34 5 -69 5h-89v-312q0 -37 8 -66h-237q8 30 8 66v312zM182 529h400v642z" />
    <glyph glyph-name="five" unicode="5" horiz-adv-x="1043" 
d="M129 52l42 149q40 -35 65 -52q76 -54 168 -54q121 0 185 93q66 96 66 250q0 116 -44 188q-50 82 -153 82q-85 0 -148 -63l-105 45q6 25 6 86v504q0 45 -6 85h612v-159q-33 7 -70 7h-413v-427q88 57 197 57q157 0 252 -108q95 -109 95 -291q0 -230 -137 -356
q-117 -108 -310 -108q-149 0 -302 72z" />
    <glyph glyph-name="six" unicode="6" horiz-adv-x="1043" 
d="M338 795q60 74 123 107t142 33q140 0 231 -105q109 -126 109 -357q0 -263 -139 -396q-100 -97 -266 -97q-213 0 -321 152t-108 451q0 320 87 497q92 187 255 262q93 43 197 43q41 0 103 -9l33 -127q-70 23 -117 23q-106 0 -194 -87q-92 -93 -119 -252q-8 -50 -16 -138z
M333 650q-4 -83 -4 -117q0 -195 50 -332q43 -118 156 -118q101 0 145 100q49 114 49 289q0 136 -37 225q-21 52 -61.5 82t-88.5 30q-78 0 -141 -63q-16 -17 -42 -53t-26 -43z" />
    <glyph glyph-name="seven" unicode="7" horiz-adv-x="1043" 
d="M761 1199l-537 -2q-44 -1 -81 -8v176h756v-152q-14 -23 -30 -62l-442 -1092q-5 -14 -19 -59h-222q22 32 35 59z" />
    <glyph glyph-name="eight" unicode="8" horiz-adv-x="1043" 
d="M684 748q95 -27 149 -74q108 -93 108 -274q0 -161 -51 -249q-100 -171 -363 -171q-160 0 -245 47q-179 100 -179 358q0 111 29 182.5t93 118.5q48 35 135 62q-215 53 -215 291q0 164 104 260q95 86 272 86q179 0 273 -86q105 -95 105 -258q0 -241 -215 -293zM518 1283
q-78 0 -119 -60q-46 -68 -46 -189q0 -250 168 -250q170 0 170 252q0 247 -173 247zM518 670q-95 0 -141 -71q-52 -82 -52 -223q0 -133 49 -212q45 -73 149 -73q196 0 196 285q0 141 -53 223q-45 71 -148 71z" />
    <glyph glyph-name="nine" unicode="9" horiz-adv-x="1043" 
d="M706 570q-115 -140 -266 -140q-140 0 -231 105q-109 126 -109 357q0 263 139 396q100 97 267 97q213 0 321 -152t108 -451q0 -320 -87 -497q-92 -187 -255 -262q-93 -43 -197 -43q-42 0 -103 9l-34 127q69 -23 118 -23q106 0 193 88q92 91 119 251q9 51 17 138zM710 715
q5 79 5 122q0 143 -33 272q-44 173 -174 173q-101 0 -144 -100q-50 -114 -50 -289q0 -136 37 -225q22 -52 62 -82t87 -30q80 0 143 63q16 17 41.5 53t25.5 43z" />
    <glyph glyph-name="colon" unicode=":" horiz-adv-x="535" 
d="M269 869q56 0 93 -30q43 -35 43 -88q0 -54 -43 -89q-37 -30 -95 -30q-57 0 -93 30q-43 36 -43 88q0 54 43 89q37 30 95 30zM269 223q56 0 93 -30q43 -35 43 -89q0 -53 -43 -88q-37 -30 -94 -30t-94 30q-43 36 -43 88q0 54 43 89q37 30 95 30z" />
    <glyph glyph-name="semicolon" unicode=";" horiz-adv-x="535" 
d="M221 233l177 -74l-220 -402l-132 56zM286 869q55 0 92 -30q43 -35 43 -88q0 -54 -43 -89q-37 -30 -94 -30t-93 30q-43 36 -43 88q0 54 43 89q37 30 95 30z" />
    <glyph glyph-name="less" unicode="&#x3c;" 
d="M955 1219v-225l-647 -311l647 -311v-226l-887 441v192z" />
    <glyph glyph-name="equal" unicode="=" horiz-adv-x="1043" 
d="M103 754v126h837v-126h-837zM103 486v126h837v-126h-837z" />
    <glyph glyph-name="greater" unicode="&#x3e;" 
d="M69 1219l887 -440v-192l-887 -441v226l646 311l-646 311v225z" />
    <glyph glyph-name="question" unicode="?" horiz-adv-x="746" 
d="M142 1172l-8 135q120 78 257 78q119 0 193 -65q79 -69 79 -172q0 -85 -59 -187q-47 -81 -132 -190q-73 -93 -90 -127q-23 -47 -23 -86q0 -47 36 -74q31 -23 70 -23q49 0 109 47l8 -112q-97 -53 -190 -53q-107 0 -177 73q-62 64 -62 147q0 74 42 143q41 66 110 155
q88 113 117 171q25 50 25 96q0 59 -33 96q-34 38 -86 38q-87 0 -186 -90zM363 223q56 0 93 -30q43 -35 43 -89q0 -53 -43 -88q-37 -30 -95 -30q-56 0 -93 30q-43 36 -43 88q0 54 43 89q37 30 95 30z" />
    <glyph glyph-name="at" unicode="@" horiz-adv-x="1504" 
d="M936 971l9 82h164q-11 -26 -14 -52l-45 -443q-7 -65 -7 -88q0 -75 70 -75q73 0 136 85q94 129 94 307q0 228 -159 376q-156 145 -388 145q-255 0 -435 -177q-184 -180 -184 -446q0 -253 163 -432q180 -196 463 -196q202 0 374 76l33 -75q-176 -83 -393 -83
q-340 0 -552 217q-95 97 -146.5 225.5t-51.5 267.5q0 207 111 379q103 159 281 246q162 79 338 79q127 0 246 -42.5t207 -119.5q94 -82 145.5 -196t51.5 -239q0 -112 -41 -214.5t-115 -174.5q-95 -93 -217 -93q-137 0 -183 112q-93 -112 -231 -112q-129 0 -191 90
q-58 84 -58 220q0 217 116 350q86 99 227 99q130 0 182 -98zM779 982q-98 0 -155 -117q-21 -44 -35.5 -121.5t-14.5 -148.5q0 -94 42 -143q35 -41 93 -41q99 0 155 109q55 107 55 267q0 93 -37 145q-35 50 -103 50z" />
    <glyph glyph-name="A" unicode="A" horiz-adv-x="1180" 
d="M266 428l-132 -371q-9 -25 -8 -57h-129q19 30 28 57l447 1258q9 26 9 50h199q1 -21 9 -45l461 -1263q10 -24 33 -57h-267q0 27 -10 57l-131 371h-509zM301 528h436l-221 617z" />
    <glyph glyph-name="B" unicode="B" horiz-adv-x="1119" 
d="M144 1365h461q169 0 274 -74q120 -86 120 -263q0 -184 -145 -264q-46 -25 -130 -50q91 -17 150 -52q152 -89 152 -288t-151 -303q-102 -71 -240 -71h-491q9 27 9 67v1233q0 40 -9 65zM381 752h98q131 0 199 47q95 65 95 227q0 237 -247 237h-145v-511zM381 105h162
q251 0 251 262q0 154 -90 228q-55 45 -125 55q-43 6 -97 6h-101v-551z" />
    <glyph glyph-name="C" unicode="C" horiz-adv-x="1151" 
d="M1102 1325v-184q-66 53 -113 79q-96 53 -213 53q-224 0 -341 -170q-112 -162 -112 -416q0 -271 128 -433q125 -158 332 -158q120 0 220 64q39 25 99 82v-180q-69 -32 -122 -49q-101 -33 -234 -33q-316 0 -485 175q-181 188 -181 537q0 164 41 284t127 212
q186 197 528 197q174 0 326 -60z" />
    <glyph glyph-name="D" unicode="D" horiz-adv-x="1345" 
d="M144 1365h421q233 0 397 -95q150 -86 224 -237q76 -153 76 -339q0 -191 -72.5 -341t-210.5 -247q-153 -106 -355 -106h-480q9 30 9 66v1234q0 38 -9 65zM381 117h185q182 0 292 108q78 77 119.5 199t41.5 272q0 319 -202 467q-121 89 -287 89h-149v-1135z" />
    <glyph glyph-name="E" unicode="E" horiz-adv-x="950" 
d="M144 1365h708v-111q-31 10 -64 10h-407v-520h396q43 0 75 9v-111q-27 6 -73 6h-398v-538h395q33 0 76 10v-120h-707q8 30 8 65v1234q0 41 -9 66z" />
    <glyph glyph-name="F" unicode="F" horiz-adv-x="883" 
d="M144 1365h694v-109q-36 8 -72 8h-385v-524h327q37 0 71 8v-112q-29 8 -68 8h-330v-578q0 -35 9 -66h-246q9 31 9 66v1234q0 34 -9 65z" />
    <glyph glyph-name="G" unicode="G" horiz-adv-x="1326" 
d="M1162 1311v-169q-187 128 -372 128q-200 0 -323 -136q-73 -81 -106.5 -191t-33.5 -268q0 -307 138 -458q116 -126 305 -126q111 0 211 57v533q0 37 -8 66h238q-8 -31 -8 -66v-525q1 -46 13 -82q-102 -34 -156 -50q-152 -44 -314 -44q-157 0 -271 41t-201 130
q-191 193 -191 527q0 357 222 550q179 157 473 157q181 0 384 -74z" />
    <glyph glyph-name="H" unicode="H" horiz-adv-x="1362" 
d="M381 656v-591q0 -36 9 -65h-246q9 27 9 65v1235q0 36 -9 65h246q-9 -33 -9 -66v-543h600v543q0 33 -9 66h246q-9 -29 -9 -65v-1235q0 -36 9 -65h-246q9 29 9 65v591h-600z" />
    <glyph glyph-name="I" unicode="I" horiz-adv-x="558" 
d="M156 1365h246q-8 -24 -9 -65v-1234q1 -42 9 -66h-246q9 30 9 66v1234q0 35 -9 65z" />
    <glyph glyph-name="J" unicode="J" horiz-adv-x="539" 
d="M-115 -286l67 138q71 -62 123 -62q83 0 83 128v1382q0 36 -9 65h246q-9 -26 -9 -66v-1372q0 -120 -39 -175q-32 -47 -96 -73.5t-142 -26.5q-113 0 -224 62z" />
    <glyph glyph-name="K" unicode="K" horiz-adv-x="1095" 
d="M381 647v-581q0 -36 9 -66h-246q9 30 9 66v1233q0 37 -9 66h246q-9 -30 -9 -65v-540l438 560q12 16 24 45h169q-26 -20 -49 -49l-418 -533l535 -727q31 -41 50 -56h-293q-9 33 -23 52z" />
    <glyph glyph-name="L" unicode="L" horiz-adv-x="854" 
d="M837 0h-693q9 29 9 64v1235q0 36 -9 66h246q-9 -30 -9 -66v-1189h387q44 1 69 9v-119z" />
    <glyph glyph-name="M" unicode="M" horiz-adv-x="1679" 
d="M333 1051l-157 -991q-1 -5 -1 -10q0 -8 4 -50h-124q14 43 17 63l195 1243q2 9 2 22q0 14 -2 37h206q2 -32 9 -52l363 -1061l367 1065q7 21 7 39v9h206q-1 -17 -1 -28t1 -20l181 -1257q3 -18 16 -60h-244q4 18 4 31q0 11 -2 25l-144 1018l-348 -1014q-10 -29 -10 -50v-10
h-192q1 8 1 14q0 13 -8 38z" />
    <glyph glyph-name="N" unicode="N" horiz-adv-x="1379" 
d="M252 1113v-1047q0 -37 9 -66h-122q9 30 9 66v1233q0 38 -9 66h217q5 -20 24 -47l746 -1043v1024q0 35 -9 66h122q-8 -23 -9 -65v-1239q1 -40 10 -61h-199q-6 17 -30 51z" />
    <glyph glyph-name="O" unicode="O" horiz-adv-x="1512" 
d="M765 1385q294 0 470 -166q194 -184 194 -535q0 -346 -185 -530q-175 -174 -490 -174q-331 0 -499 186q-172 190 -172 517q0 347 188 531q176 171 494 171zM749 1279q-218 0 -325 -170q-97 -155 -97 -425q0 -271 97 -427q106 -171 334 -171q217 0 328 170q100 153 100 420
q0 603 -437 603z" />
    <glyph glyph-name="P" unicode="P" horiz-adv-x="1054" 
d="M381 587v-521q0 -29 10 -66h-247q9 31 9 66v1232q0 37 -9 67h437q160 0 271 -64q170 -100 170 -312q0 -237 -207 -341q-121 -61 -289 -61h-145zM381 692h122q100 0 161 36q59 35 91 102q35 72 35 155q0 152 -97 227q-66 52 -171 52h-141v-572z" />
    <glyph glyph-name="Q" unicode="Q" horiz-adv-x="1512" 
d="M1361 -157l-207 -134q-221 131 -322 183q-128 63 -344 140q-140 51 -205 111q-104 94 -157 256q-43 129 -43 281q0 224 90 401q91 177 283 251q137 53 302 53q291 0 457 -144q118 -101 173 -285q40 -133 40 -276q0 -202 -72 -358q-82 -181 -252 -264q-64 -31 -164 -53
q35 -15 154 -70q163 -69 267 -92zM749 1279q-104 0 -188 -42t-133 -119q-102 -161 -102 -440q0 -290 120 -450q102 -137 309 -137q198 0 302 135q128 167 128 445q0 135 -26.5 253t-73.5 194q-101 161 -336 161z" />
    <glyph glyph-name="R" unicode="R" horiz-adv-x="1104" 
d="M382 633v-567q0 -35 9 -66h-247q9 26 9 66v1234q0 34 -9 65h415q142 0 249 -59q86 -48 133 -129t47 -181q0 -229 -216 -312q-59 -22 -152 -40l448 -590q28 -36 55 -54h-298q-10 31 -29 59zM381 711h106q93 0 160 47q109 78 109 228q0 139 -92 221q-67 59 -188 59h-95
v-555z" />
    <glyph glyph-name="S" unicode="S" horiz-adv-x="959" 
d="M56 85l46 162q55 -47 91 -72q108 -75 234 -75q125 0 197 74q64 66 64 162q0 112 -91 181q-42 32 -207 110q-171 81 -241 161q-83 94 -83 220q0 90 41.5 168t116.5 130q114 79 295 79q154 0 318 -73l-43 -145q-158 109 -289 109q-104 0 -169 -66q-55 -57 -55 -137
q0 -95 81 -158q52 -41 202 -110q189 -86 256 -168q84 -104 84 -241q0 -93 -40.5 -178.5t-113.5 -143.5q-117 -94 -316 -94q-157 0 -299 64q-32 15 -79 41z" />
    <glyph glyph-name="T" unicode="T" horiz-adv-x="914" 
d="M-38 1365h990v-124q-49 9 -85 9h-294v-1184q0 -36 9 -66h-246q9 29 9 66v1184h-296q-42 0 -87 -9v124z" />
    <glyph glyph-name="U" unicode="U" horiz-adv-x="1357" 
d="M1227 1365q-9 -28 -9 -66v-847q0 -164 -78 -277q-68 -99 -184.5 -147t-287.5 -48q-152 0 -257 41.5t-175 129.5q-96 121 -96 290v858q0 36 -9 66h246q-9 -31 -9 -65v-863q0 -122 57 -206q94 -140 303 -140q227 0 324 140q64 93 64 237v831q-1 40 -9 66h120z" />
    <glyph glyph-name="V" unicode="V" horiz-adv-x="1051" 
d="M-42 1365h257v-10q0 -19 10 -48l363 -1077l372 1082q9 27 9 53h125q-19 -32 -28 -58l-425 -1251q-6 -18 -11 -56h-211q-4 26 -14 56l-417 1241q-7 18 -30 68z" />
    <glyph glyph-name="W" unicode="W" horiz-adv-x="1644" 
d="M816 1087l-279 -1030q-4 -17 -6 -57h-208v17q0 27 -6 52l-316 1235q-7 28 -20 61h243q-1 -8 -1 -11q0 -12 7 -42l255 -1029l284 1021q7 28 7 42q0 6 -2 19h211q-1 -10 -1 -16q0 -17 6 -40l282 -1026l263 1026q7 27 7 41q0 5 -1 15h123q-18 -42 -21 -56l-320 -1252
q-3 -14 -8 -57h-214v14q0 25 -8 54z" />
    <glyph glyph-name="X" unicode="X" horiz-adv-x="1012" 
d="M397 679l-344 627q-17 32 -39 59h266q11 -33 25 -59l249 -445l264 445q11 20 29 59h129q-26 -35 -40 -59l-329 -545l387 -702q19 -34 37 -59h-267q-9 31 -25 59l-289 512l-308 -512q-17 -30 -28 -59h-132q29 34 44 59z" />
    <glyph glyph-name="Y" unicode="Y" horiz-adv-x="916" 
d="M342 598l-352 712q-17 35 -32 55h265q2 -20 20 -59l278 -566l289 569q12 24 19 56h129q-15 -21 -31 -51l-357 -713v-535q0 -37 9 -66h-246q9 30 9 66v532z" />
    <glyph glyph-name="Z" unicode="Z" horiz-adv-x="1051" 
d="M45 0v123l704 1137h-607q-40 0 -97 -8v113h961v-114l-705 -1141h616q55 0 89 9v-119h-961z" />
    <glyph glyph-name="bracketleft" unicode="[" horiz-adv-x="667" 
d="M359 1375v-1429h173q35 0 62 8v-116h-442q8 30 8 66v1513q0 35 -8 66h442v-116q-28 8 -62 8h-173z" />
    <glyph glyph-name="backslash" unicode="\" horiz-adv-x="785" 
d="M792 -236h-141l-579 1601h141z" />
    <glyph glyph-name="bracketright" unicode="]" horiz-adv-x="667" 
d="M307 1375h-172q-34 0 -62 -8v116h441q-8 -30 -8 -66v-1513q0 -36 8 -66h-441v116q28 -8 62 -8h172v1429z" />
    <glyph glyph-name="asciicircum" unicode="^" 
d="M254 744h-205l336 627h254l336 -627h-206l-258 473z" />
    <glyph glyph-name="underscore" unicode="_" 
d="M0 -113h1024v-126h-1024v126z" />
    <glyph glyph-name="grave" unicode="`" 
d="M497 1189l-214 316h180l133 -316h-99z" />
    <glyph glyph-name="a" unicode="a" horiz-adv-x="1014" 
d="M668 143q-64 -76 -117 -107q-94 -55 -215 -55q-122 0 -197 72q-92 87 -92 233q0 174 131 260q76 49 169 79q52 16 174 53q113 33 132 99q8 25 8 48q0 62 -46 104q-54 50 -149 50q-105 0 -197 -56q-30 -18 -80 -57l-34 136q75 35 127 52q111 37 244 37q178 0 272 -80
q72 -61 72 -167v-633q0 -92 63 -92q25 0 70 33v-118q-83 -53 -158 -53q-94 0 -137 57q-24 32 -40 105zM661 636q-37 -21 -47 -25q-17 -8 -170 -66q-99 -37 -146.5 -95.5t-47.5 -142.5t51 -140q44 -48 123 -48q123 0 193 101q44 64 44 138v278z" />
    <glyph glyph-name="b" unicode="b" horiz-adv-x="1123" 
d="M343 919q64 80 114 114q85 58 197 58q173 0 275 -131q113 -145 113 -407t-117 -417q-116 -155 -318 -155q-121 0 -212 58q-47 30 -99 90l-59 -129h-111q8 27 8 66v1340q0 34 -8 66h225q-8 -29 -8 -66v-487zM590 961q-72 0 -138 -56q-70 -58 -94 -142q-19 -69 -19 -188
q0 -250 13 -306q18 -75 85 -126q65 -49 145 -49q58 0 107 31.5t77 86.5q60 120 60 335q0 219 -72 326q-59 88 -164 88z" />
    <glyph glyph-name="c" unicode="c" horiz-adv-x="920" 
d="M865 57q-64 -28 -97 -41q-92 -35 -205 -35q-226 0 -350 140q-132 149 -132 401q0 288 167 443q137 126 359 126q122 0 258 -46v-156q-52 41 -83 59q-75 44 -162 44q-146 0 -227 -120q-87 -127 -87 -336q0 -182 66 -305q76 -141 236 -141q99 0 189 60q27 18 68 54v-147z
" />
    <glyph glyph-name="d" unicode="d" horiz-adv-x="1120" 
d="M780 155q-54 -75 -97 -108q-84 -66 -214 -66q-186 0 -286 151q-102 155 -102 403q0 256 115 413q105 143 300 143q125 0 208 -61q35 -26 73 -77v453q0 36 -8 66h225q-8 -31 -8 -66v-1340q0 -34 8 -66h-214v155zM545 978q-60 0 -110.5 -34.5t-77.5 -94.5
q-56 -122 -56 -318q0 -417 237 -417q57 0 108.5 30.5t78.5 80.5q63 114 63 324q0 429 -243 429z" />
    <glyph glyph-name="e" unicode="e" horiz-adv-x="1105" 
d="M987 71q-78 -39 -135 -57q-102 -33 -231 -33q-272 0 -414 160q-126 141 -126 384q0 275 144 426q133 140 353 140q275 0 394 -228q60 -116 66 -292h-739q0 -175 39 -280q76 -209 311 -209q162 0 307 124zM305 665h510q-8 91 -26 148q-27 85 -92 137q-55 43 -130 43
q-97 0 -168 -77q-77 -84 -94 -251z" />
    <glyph glyph-name="f" unicode="f" horiz-adv-x="636" 
d="M156 967h-114v99h114v183q0 115 69 173q86 73 243 73q104 0 254 -40l-42 -118q-99 52 -177 52q-72 0 -109 -39q-29 -31 -29 -104v-180h306v-99h-306v-902q0 -34 8 -65h-225q8 30 8 66v901z" />
    <glyph glyph-name="g" unicode="g" horiz-adv-x="1123" 
d="M140 -101l-52 154l229 167q-94 53 -143 111q-88 103 -88 281q0 235 134 361q125 117 329 117q38 0 113 -4q46 19 73 65t32 114h199q-10 -85 -64 -138q-34 -32 -101 -73q122 -59 184 -166.5t62 -259.5q0 -198 -114 -319q-89 -96 -247 -124q-31 -5 -132 -15
q-62 -6 -108 -33l-194 -120q277 66 419 66q163 0 284 -50q62 -25 96.5 -70.5t34.5 -100.5q0 -57 -37 -103t-103 -72q-119 -47 -296 -47q-217 0 -522 92v40q235 -63 414 -63q124 0 201 35q78 35 78 97q0 31 -26.5 56.5t-71.5 38.5q-91 27 -206 27q-169 0 -377 -64zM563 982
q-128 0 -191 -99q-60 -95 -60 -251q0 -164 66 -261q63 -93 187 -93q130 0 192 97q64 103 64 259q0 162 -69 259q-64 89 -189 89z" />
    <glyph glyph-name="h" unicode="h" horiz-adv-x="1139" 
d="M126 0q8 31 8 66v1340q0 37 -8 66h225q-8 -29 -8 -66v-478q45 59 88 91q95 72 233 72q181 0 274 -106q65 -75 65 -202v-717q0 -34 8 -66h-225q8 28 8 66v648q0 115 -49 171q-50 57 -152 57q-125 0 -187 -68q-63 -71 -63 -179v-629q0 -35 8 -66h-225z" />
    <glyph glyph-name="i" unicode="i" horiz-adv-x="501" 
d="M249 1354q56 0 93 -25q35 -23 35 -70q0 -49 -37 -74q-36 -25 -92 -25q-64 0 -101 28q-31 24 -31 68t32 69q38 29 101 29zM131 1066h225q-8 -31 -8 -66v-934q0 -34 8 -66h-225q8 30 8 66v934q0 37 -8 66z" />
    <glyph glyph-name="j" unicode="j" horiz-adv-x="504" 
d="M260 1354q56 0 93 -25q36 -23 36 -70q0 -49 -37 -74q-36 -25 -92 -25q-65 0 -102 28q-31 24 -31 68t32 69q38 29 101 29zM-95 -271l50 118q28 -28 43 -40q41 -36 82 -36q29 0 49 18q22 21 22 62l-1 71v1078q0 36 -8 66h225q-8 -31 -8 -66v-1071q0 -113 -35 -170
q-60 -98 -201 -98q-100 0 -218 68z" />
    <glyph glyph-name="k" unicode="k" horiz-adv-x="980" 
d="M343 549v-483q0 -34 8 -66h-225q8 30 8 66v1340q0 36 -8 66h225q-8 -30 -8 -66v-775l349 382q19 22 37 53h169q-20 -15 -60 -57l-325 -339l489 -616q26 -33 52 -54h-271q-21 32 -41 61z" />
    <glyph glyph-name="l" unicode="l" horiz-adv-x="478" 
d="M351 1472q-8 -29 -8 -66v-1340q0 -34 8 -66h-225q8 31 8 66v1340q0 36 -8 66h225z" />
    <glyph glyph-name="m" unicode="m" horiz-adv-x="1702" 
d="M341 944q116 147 305 147q128 0 207 -55q44 -31 81 -92q60 63 110 93q92 54 214 54q308 0 308 -299v-726q0 -35 8 -66h-225q8 31 8 66v691q0 85 -28 125q-42 60 -150 60q-93 0 -152 -43q-73 -53 -73 -166v-667q0 -37 8 -66h-225q8 29 8 66v691q0 85 -30 124
q-47 61 -148 61q-102 0 -166 -57q-56 -51 -56 -136v-683q0 -35 8 -66h-225q8 31 8 66v935q0 37 -8 65h213v-122z" />
    <glyph glyph-name="n" unicode="n" horiz-adv-x="1143" 
d="M128 1066h213v-149q48 75 97 110q92 64 233 64q182 0 276 -111q60 -71 60 -198v-716q0 -33 8 -66h-225q8 25 8 66v685q0 94 -60 146q-51 45 -143 45q-123 0 -185 -68q-65 -72 -65 -185v-623q0 -35 8 -66h-225q8 29 8 66v935q0 34 -8 65z" />
    <glyph glyph-name="o" unicode="o" horiz-adv-x="1145" 
d="M579 1091q228 0 362 -160q124 -148 124 -397q0 -261 -142 -412q-132 -141 -350 -141q-232 0 -360 154q-132 158 -132 409q0 243 130 394q131 153 368 153zM570 1002q-54 0 -106 -30.5t-82 -80.5q-81 -131 -81 -357q0 -221 82 -354q31 -50 82.5 -80t107.5 -30t107.5 30
t82.5 80q82 133 82 354q0 228 -82 359q-32 51 -83.5 80t-109.5 29z" />
    <glyph glyph-name="p" unicode="p" horiz-adv-x="1118" 
d="M339 120v-374q0 -36 8 -65h-225q8 31 8 65v1254q0 33 -8 66h214v-152q117 177 311 177q165 0 270 -125q62 -74 91 -174.5t29 -242.5q0 -280 -120 -430q-66 -82 -174 -118q-60 -20 -124 -20q-168 0 -280 139zM582 958q-74 0 -141 -54q-71 -58 -94 -169q-14 -71 -14 -206
q0 -186 30 -266q63 -169 212 -169q128 0 186 123q57 121 57 315q0 219 -60 327q-26 46 -73 72.5t-103 26.5z" />
    <glyph glyph-name="q" unicode="q" horiz-adv-x="1116" 
d="M777 155q-59 -78 -107 -114q-79 -60 -189 -60q-194 0 -304 155q-96 134 -96 376q0 275 114 428q112 151 320 151q141 0 237 -77q31 -24 74 -74l55 126h113q-8 -28 -8 -65v-1255q0 -33 8 -65h-225q8 28 8 65v409zM544 978q-47 0 -91.5 -24t-72.5 -63q-83 -118 -83 -357
q0 -216 65 -328q25 -44 70 -70t96 -26q46 0 92.5 23t74.5 61q91 120 91 381q0 217 -68 315q-28 40 -75.5 64t-98.5 24z" />
    <glyph glyph-name="r" unicode="r" horiz-adv-x="654" 
d="M128 1066h214v-136q29 87 97 123q67 33 170 38v-165q-26 2 -38 2q-106 0 -167 -63q-59 -60 -59 -188v-611q0 -36 8 -66h-225q8 32 8 66v934q0 36 -8 66z" />
    <glyph glyph-name="s" unicode="s" horiz-adv-x="852" 
d="M49 72l36 145q57 -47 96 -71q102 -62 214 -62q98 0 153 56q51 53 51 122q0 76 -71 124q-41 29 -188 87q-159 63 -213 141q-50 73 -50 161q0 168 143 255q100 61 235 61q154 0 320 -71l-35 -132q-142 102 -265 102q-83 0 -137 -45q-58 -47 -58 -119q0 -65 54 -105
q37 -28 172 -79q157 -61 225 -127q71 -71 71 -191q0 -169 -127 -264q-105 -79 -283 -79q-173 0 -343 91z" />
    <glyph glyph-name="t" unicode="t" horiz-adv-x="607" 
d="M167 967h-158v99h158v206l213 23q-4 -59 -4 -78v-151h172v-99h-172v-771q0 -95 79 -95q38 0 96 32v-110q-87 -42 -180 -42q-111 0 -162 59q-42 49 -42 150v777z" />
    <glyph glyph-name="u" unicode="u" horiz-adv-x="1138" 
d="M796 0v146q-57 -78 -110 -112q-84 -53 -211 -53q-171 0 -263 97q-76 80 -76 231v692q0 34 -8 65h225q-8 -28 -8 -65v-669q0 -86 41 -137q54 -65 162 -65q129 0 198 84q46 58 46 141v646q0 35 -8 65h225q-8 -26 -8 -65v-935q0 -32 8 -66h-213z" />
    <glyph glyph-name="v" unicode="v" horiz-adv-x="908" 
d="M508 235l289 772q13 34 13 59h120q-18 -28 -30 -59l-354 -948q-14 -37 -14 -54l1 -5h-168q-3 28 -14 59l-348 948q-7 21 -26 59h243q1 -28 11 -59z" />
    <glyph glyph-name="w" unicode="w" horiz-adv-x="1480" 
d="M447 264l244 743q9 29 10 59h209q0 -33 8 -59l222 -743l237 743q6 20 6 34q0 8 -4 25h119q-16 -32 -24 -59l-293 -948q-9 -31 -10 -59h-183v11q0 21 -8 48l-236 790l-257 -790q-8 -23 -14 -59h-177q-1 27 -10 59l-280 948q-9 30 -24 59h239q-1 -30 7 -59z" />
    <glyph glyph-name="x" unicode="x" horiz-adv-x="895" 
d="M347 523l-287 484q-20 35 -39 59h254q7 -25 27 -59l197 -325l223 325q24 37 30 59h127q-31 -39 -44 -59l-282 -422l312 -526q14 -23 40 -59h-257q-1 21 -24 59l-221 370l-253 -370q-11 -17 -34 -59h-126q16 17 45 59z" />
    <glyph glyph-name="y" unicode="y" horiz-adv-x="893" 
d="M364 0l-365 1007q-7 21 -26 59h243q6 -35 15 -59l250 -719l295 719q12 31 17 59h127q-19 -32 -30 -59l-524 -1267q-12 -28 -18 -59h-130q21 34 31 59z" />
    <glyph glyph-name="z" unicode="z" horiz-adv-x="965" 
d="M38 0v108l637 854h-548q-40 0 -82 -9v113h876v-107l-635 -853h557q38 0 78 8v-114h-883z" />
    <glyph glyph-name="braceleft" unicode="{" horiz-adv-x="667" 
d="M231 659q86 -36 112 -102q18 -47 18 -121v-322q0 -96 30 -130q37 -40 123 -40q26 0 60 8v-113q-42 -1 -60 -1q-194 0 -267 60q-74 60 -74 221v312q1 102 -25 144q-29 40 -92 43v90q66 3 94 44q24 42 23 134v337q0 90 26 140q45 86 160 109q51 10 147 10h68v-117
q-47 6 -76 6q-86 0 -115 -49q-22 -37 -22 -117v-327q0 -90 -33 -149q-26 -42 -97 -70z" />
    <glyph glyph-name="bar" unicode="|" 
d="M398 1365h227v-1706h-227v1706z" />
    <glyph glyph-name="braceright" unicode="}" horiz-adv-x="667" 
d="M436 659q-77 30 -102 80q-28 58 -28 139v327q0 80 -22 117q-29 49 -115 49q-29 0 -76 -6v117h68q182 0 251 -54q54 -41 71 -104q11 -39 11 -101v-337q-1 -92 23 -134q28 -41 94 -44v-90q-63 -3 -92 -43q-26 -42 -25 -144v-312q0 -176 -91 -234q-74 -47 -250 -47
q-18 0 -60 1v113q34 -8 60 -8q95 0 129 48q24 34 24 122v322q0 83 22 131q28 58 108 92z" />
    <glyph glyph-name="asciitilde" unicode="~" horiz-adv-x="1365" 
d="M307 1162l-115 93q39 87 84 145q84 107 204 107q76 0 230 -73q85 -40 111 -49q41 -14 74 -14q88 0 167 141l115 -93q-45 -99 -88 -151q-85 -103 -201 -103q-47 0 -114 27q-37 14 -109 47q-139 63 -193 63q-61 0 -107 -54q-27 -31 -58 -86z" />
    <glyph glyph-name="Adieresis" unicode="&#xc4;" horiz-adv-x="1180" 
d="M266 428l-132 -371q-9 -25 -8 -57h-129q19 30 28 57l447 1258q9 26 9 50h199q1 -21 9 -45l461 -1263q10 -24 33 -57h-267q0 27 -10 57l-131 371h-509zM301 528h436l-221 617zM361 1669q55 0 92 -25q35 -23 35 -70q0 -50 -37 -75q-36 -24 -93 -24q-62 0 -100 28
q-31 23 -31 68t32 69q39 29 102 29zM799 1671q55 0 92 -25q35 -23 35 -70q0 -50 -37 -75q-36 -24 -92 -24q-63 0 -101 28q-31 23 -31 68q0 44 32 69q39 29 102 29z" />
    <glyph glyph-name="Aring" unicode="&#xc5;" horiz-adv-x="1180" 
d="M266 428l-132 -371q-9 -25 -8 -57h-129q19 30 28 57l447 1258q9 26 9 50h199q1 -21 9 -45l461 -1263q10 -24 33 -57h-267q0 27 -10 57l-131 371h-509zM301 528h436l-221 617zM577 1814q75 0 129 -54q53 -54 53 -131q0 -76 -53 -130q-54 -54 -131 -54q-76 0 -128 53
q-54 57 -54 131q0 75 54 131q52 54 130 54zM574 1727q-41 0 -69 -29q-29 -30 -29 -69q0 -38 29 -68q28 -29 70 -29q43 0 72 29t29 68q0 40 -28 68q-30 30 -74 30z" />
    <glyph glyph-name="Ccedilla" unicode="&#xc7;" horiz-adv-x="1151" 
d="M1102 1325v-184q-66 53 -113 79q-96 53 -213 53q-224 0 -341 -170q-112 -162 -112 -416q0 -271 128 -433q125 -158 332 -158q120 0 220 64q39 25 99 82v-180q-69 -32 -122 -49q-101 -33 -234 -33q-316 0 -485 175q-181 188 -181 537q0 164 41 284t127 212
q186 197 528 197q174 0 326 -60zM510 -407l87 309h162l-148 -309h-101z" />
    <glyph glyph-name="Eacute" unicode="&#xc9;" horiz-adv-x="950" 
d="M144 1365h708v-111q-31 10 -64 10h-407v-520h396q43 0 75 9v-111q-27 6 -73 6h-398v-538h395q33 0 76 10v-120h-707q8 30 8 65v1234q0 41 -9 66zM417 1444l139 316h179l-215 -316h-103z" />
    <glyph glyph-name="Ntilde" unicode="&#xd1;" horiz-adv-x="1379" 
d="M252 1113v-1047q0 -37 9 -66h-122q9 30 9 66v1233q0 38 -9 66h217q5 -20 24 -47l746 -1043v1024q0 35 -9 66h122q-8 -23 -9 -65v-1239q1 -40 10 -61h-199q-6 17 -30 51zM418 1530v141q103 34 167 34q58 0 246 -47q31 -7 61 -7q47 0 107 35v-140q-70 -27 -115 -27
q-36 0 -177 35q-81 20 -135 20q-65 0 -154 -44z" />
    <glyph glyph-name="Odieresis" unicode="&#xd6;" horiz-adv-x="1512" 
d="M765 1385q294 0 470 -166q194 -184 194 -535q0 -346 -185 -530q-175 -174 -490 -174q-331 0 -499 186q-172 190 -172 517q0 347 188 531q176 171 494 171zM749 1279q-218 0 -325 -170q-97 -155 -97 -425q0 -271 97 -427q106 -171 334 -171q217 0 328 170q100 153 100 420
q0 603 -437 603zM540 1669q55 0 92 -25q35 -23 35 -70q0 -50 -37 -75q-36 -24 -93 -24q-62 0 -100 28q-31 23 -31 68t32 69q39 29 102 29zM978 1671q55 0 92 -25q35 -23 35 -70q0 -50 -37 -75q-36 -24 -92 -24q-63 0 -101 28q-31 23 -31 68q0 44 32 69q39 29 102 29z" />
    <glyph glyph-name="Udieresis" unicode="&#xdc;" horiz-adv-x="1357" 
d="M1227 1365q-9 -28 -9 -66v-847q0 -164 -78 -277q-68 -99 -184.5 -147t-287.5 -48q-152 0 -257 41.5t-175 129.5q-96 121 -96 290v858q0 36 -9 66h246q-9 -31 -9 -65v-863q0 -122 57 -206q94 -140 303 -140q227 0 324 140q64 93 64 237v831q-1 40 -9 66h120zM493 1669
q55 0 92 -25q35 -23 35 -70q0 -50 -37 -75q-36 -24 -93 -24q-62 0 -100 28q-31 23 -31 68t32 69q39 29 102 29zM931 1671q55 0 92 -25q35 -23 35 -70q0 -50 -37 -75q-36 -24 -92 -24q-63 0 -101 28q-31 23 -31 68q0 44 32 69q39 29 102 29z" />
    <glyph glyph-name="aacute" unicode="&#xe1;" horiz-adv-x="1014" 
d="M668 143q-64 -76 -117 -107q-94 -55 -215 -55q-122 0 -197 72q-92 87 -92 233q0 174 131 260q76 49 169 79q52 16 174 53q113 33 132 99q8 25 8 48q0 62 -46 104q-54 50 -149 50q-105 0 -197 -56q-30 -18 -80 -57l-34 136q75 35 127 52q111 37 244 37q178 0 272 -80
q72 -61 72 -167v-633q0 -92 63 -92q25 0 70 33v-118q-83 -53 -158 -53q-94 0 -137 57q-24 32 -40 105zM661 636q-37 -21 -47 -25q-17 -8 -170 -66q-99 -37 -146.5 -95.5t-47.5 -142.5t51 -140q44 -48 123 -48q123 0 193 101q44 64 44 138v278zM426 1189l139 316h179
l-215 -316h-103z" />
    <glyph glyph-name="agrave" unicode="&#xe0;" horiz-adv-x="1014" 
d="M668 143q-64 -76 -117 -107q-94 -55 -215 -55q-122 0 -197 72q-92 87 -92 233q0 174 131 260q76 49 169 79q52 16 174 53q113 33 132 99q8 25 8 48q0 62 -46 104q-54 50 -149 50q-105 0 -197 -56q-30 -18 -80 -57l-34 136q75 35 127 52q111 37 244 37q178 0 272 -80
q72 -61 72 -167v-633q0 -92 63 -92q25 0 70 33v-118q-83 -53 -158 -53q-94 0 -137 57q-24 32 -40 105zM661 636q-37 -21 -47 -25q-17 -8 -170 -66q-99 -37 -146.5 -95.5t-47.5 -142.5t51 -140q44 -48 123 -48q123 0 193 101q44 64 44 138v278zM492 1189l-214 316h180
l133 -316h-99z" />
    <glyph glyph-name="acircumflex" unicode="&#xe2;" horiz-adv-x="1014" 
d="M668 143q-64 -76 -117 -107q-94 -55 -215 -55q-122 0 -197 72q-92 87 -92 233q0 174 131 260q76 49 169 79q52 16 174 53q113 33 132 99q8 25 8 48q0 62 -46 104q-54 50 -149 50q-105 0 -197 -56q-30 -18 -80 -57l-34 136q75 35 127 52q111 37 244 37q178 0 272 -80
q72 -61 72 -167v-633q0 -92 63 -92q25 0 70 33v-118q-83 -53 -158 -53q-94 0 -137 57q-24 32 -40 105zM661 636q-37 -21 -47 -25q-17 -8 -170 -66q-99 -37 -146.5 -95.5t-47.5 -142.5t51 -140q44 -48 123 -48q123 0 193 101q44 64 44 138v278zM212 1189l234 311h134
l221 -311h-153l-136 224l-145 -224h-155z" />
    <glyph glyph-name="adieresis" unicode="&#xe4;" horiz-adv-x="1014" 
d="M668 143q-64 -76 -117 -107q-94 -55 -215 -55q-122 0 -197 72q-92 87 -92 233q0 174 131 260q76 49 169 79q52 16 174 53q113 33 132 99q8 25 8 48q0 62 -46 104q-54 50 -149 50q-105 0 -197 -56q-30 -18 -80 -57l-34 136q75 35 127 52q111 37 244 37q178 0 272 -80
q72 -61 72 -167v-633q0 -92 63 -92q25 0 70 33v-118q-83 -53 -158 -53q-94 0 -137 57q-24 32 -40 105zM661 636q-37 -21 -47 -25q-17 -8 -170 -66q-99 -37 -146.5 -95.5t-47.5 -142.5t51 -140q44 -48 123 -48q123 0 193 101q44 64 44 138v278zM287 1404q55 0 92 -25
q35 -23 35 -70q0 -50 -37 -75q-36 -24 -93 -24q-62 0 -100 28q-31 23 -31 68t32 69q39 29 102 29zM725 1406q55 0 92 -25q35 -23 35 -70q0 -50 -37 -75q-36 -24 -92 -24q-63 0 -101 28q-31 23 -31 68t32 69q39 29 102 29z" />
    <glyph glyph-name="atilde" unicode="&#xe3;" horiz-adv-x="1014" 
d="M668 143q-64 -76 -117 -107q-94 -55 -215 -55q-122 0 -197 72q-92 87 -92 233q0 174 131 260q76 49 169 79q52 16 174 53q113 33 132 99q8 25 8 48q0 62 -46 104q-54 50 -149 50q-105 0 -197 -56q-30 -18 -80 -57l-34 136q75 35 127 52q111 37 244 37q178 0 272 -80
q72 -61 72 -167v-633q0 -92 63 -92q25 0 70 33v-118q-83 -53 -158 -53q-94 0 -137 57q-24 32 -40 105zM661 636q-37 -21 -47 -25q-17 -8 -170 -66q-99 -37 -146.5 -95.5t-47.5 -142.5t51 -140q44 -48 123 -48q123 0 193 101q44 64 44 138v278zM227 1258v150q80 35 150 35
q59 0 261 -47q32 -8 64 -8q43 0 84 35v-148q-54 -28 -94 -28t-187 38q-76 19 -139 19q-68 0 -139 -46z" />
    <glyph glyph-name="aring" unicode="&#xe5;" horiz-adv-x="1014" 
d="M668 143q-64 -76 -117 -107q-94 -55 -215 -55q-122 0 -197 72q-92 87 -92 233q0 174 131 260q76 49 169 79q52 16 174 53q113 33 132 99q8 25 8 48q0 62 -46 104q-54 50 -149 50q-105 0 -197 -56q-30 -18 -80 -57l-34 136q75 35 127 52q111 37 244 37q178 0 272 -80
q72 -61 72 -167v-633q0 -92 63 -92q25 0 70 33v-118q-83 -53 -158 -53q-94 0 -137 57q-24 32 -40 105zM661 636q-37 -21 -47 -25q-17 -8 -170 -66q-99 -37 -146.5 -95.5t-47.5 -142.5t51 -140q44 -48 123 -48q123 0 193 101q44 64 44 138v278zM508 1549q75 0 129 -55
q53 -53 53 -130q0 -76 -53 -130q-54 -54 -131 -54q-76 0 -128 53q-54 57 -54 131q0 75 54 131q52 54 130 54zM505 1462q-41 0 -69 -29q-29 -30 -29 -69q0 -38 29 -68q28 -29 70 -29q43 0 72 29t29 69q0 39 -28 68q-30 29 -74 29z" />
    <glyph glyph-name="ccedilla" unicode="&#xe7;" horiz-adv-x="920" 
d="M865 57q-64 -28 -97 -41q-92 -35 -205 -35q-226 0 -350 140q-132 149 -132 401q0 288 167 443q137 126 359 126q122 0 258 -46v-156q-52 41 -83 59q-75 44 -162 44q-146 0 -227 -120q-87 -127 -87 -336q0 -182 66 -305q76 -141 236 -141q99 0 189 60q27 18 68 54v-147z
M355 -408l87 308h162l-148 -308h-101z" />
    <glyph glyph-name="eacute" unicode="&#xe9;" horiz-adv-x="1105" 
d="M987 71q-78 -39 -135 -57q-102 -33 -231 -33q-272 0 -414 160q-126 141 -126 384q0 275 144 426q133 140 353 140q275 0 394 -228q60 -116 66 -292h-739q0 -175 39 -280q76 -209 311 -209q162 0 307 124zM305 665h510q-8 91 -26 148q-27 85 -92 137q-55 43 -130 43
q-97 0 -168 -77q-77 -84 -94 -251zM471 1189l139 316h179l-215 -316h-103z" />
    <glyph glyph-name="egrave" unicode="&#xe8;" horiz-adv-x="1105" 
d="M987 71q-78 -39 -135 -57q-102 -33 -231 -33q-272 0 -414 160q-126 141 -126 384q0 275 144 426q133 140 353 140q275 0 394 -228q60 -116 66 -292h-739q0 -175 39 -280q76 -209 311 -209q162 0 307 124zM305 665h510q-8 91 -26 148q-27 85 -92 137q-55 43 -130 43
q-97 0 -168 -77q-77 -84 -94 -251zM546 1189l-214 316h180l133 -316h-99z" />
    <glyph glyph-name="ecircumflex" unicode="&#xea;" horiz-adv-x="1105" 
d="M987 71q-78 -39 -135 -57q-102 -33 -231 -33q-272 0 -414 160q-126 141 -126 384q0 275 144 426q133 140 353 140q275 0 394 -228q60 -116 66 -292h-739q0 -175 39 -280q76 -209 311 -209q162 0 307 124zM305 665h510q-8 91 -26 148q-27 85 -92 137q-55 43 -130 43
q-97 0 -168 -77q-77 -84 -94 -251zM281 1189l234 311h134l221 -311h-153l-136 224l-145 -224h-155z" />
    <glyph glyph-name="edieresis" unicode="&#xeb;" horiz-adv-x="1105" 
d="M987 71q-78 -39 -135 -57q-102 -33 -231 -33q-272 0 -414 160q-126 141 -126 384q0 275 144 426q133 140 353 140q275 0 394 -228q60 -116 66 -292h-739q0 -175 39 -280q76 -209 311 -209q162 0 307 124zM305 665h510q-8 91 -26 148q-27 85 -92 137q-55 43 -130 43
q-97 0 -168 -77q-77 -84 -94 -251zM353 1404q55 0 92 -25q35 -23 35 -70q0 -50 -37 -75q-36 -24 -93 -24q-62 0 -100 28q-31 23 -31 68t32 69q39 29 102 29zM791 1406q55 0 92 -25q35 -23 35 -70q0 -50 -37 -75q-36 -24 -92 -24q-63 0 -101 28q-31 23 -31 68t32 69
q39 29 102 29z" />
    <glyph glyph-name="iacute" unicode="&#xed;" horiz-adv-x="501" 
d="M136 1066h225q-8 -31 -8 -66v-934q0 -34 8 -66h-225q8 31 8 66v934q0 37 -8 66zM183 1189l139 316h179l-215 -316h-103z" />
    <glyph glyph-name="igrave" unicode="&#xec;" horiz-adv-x="501" 
d="M136 1066h225q-8 -31 -8 -66v-934q0 -34 8 -66h-225q8 31 8 66v934q0 37 -8 66zM216 1189l-214 316h180l133 -316h-99z" />
    <glyph glyph-name="icircumflex" unicode="&#xee;" horiz-adv-x="501" 
d="M136 1066h225q-8 -30 -8 -66v-934q0 -35 8 -66h-225q8 31 8 66v934q0 38 -8 66zM-16 1189l205 311h135l192 -311h-153l-108 224l-116 -224h-155z" />
    <glyph glyph-name="idieresis" unicode="&#xef;" horiz-adv-x="501" 
d="M136 1066h225q-8 -31 -8 -66v-934q0 -34 8 -66h-225q8 31 8 66v934q0 37 -8 66zM88 1404q52 0 87 -25q34 -24 34 -70q0 -49 -36 -75q-34 -24 -87 -24q-59 0 -95 28q-30 24 -30 68t31 69q36 29 96 29zM419 1406q52 0 87 -25q34 -24 34 -70q0 -49 -36 -75q-34 -24 -87 -24
q-60 0 -96 28q-30 24 -30 68t31 69q36 29 97 29z" />
    <glyph glyph-name="ntilde" unicode="&#xf1;" horiz-adv-x="1143" 
d="M128 1066h213v-149q48 75 97 110q92 64 233 64q182 0 276 -111q60 -71 60 -198v-716q0 -33 8 -66h-225q8 25 8 66v685q0 94 -60 146q-51 45 -143 45q-123 0 -185 -68q-65 -72 -65 -185v-623q0 -35 8 -66h-225q8 29 8 66v935q0 34 -8 65zM311 1258v150q80 35 150 35
q59 0 261 -47q32 -8 64 -8q43 0 84 35v-148q-54 -28 -94 -28t-187 38q-76 19 -139 19q-68 0 -139 -46z" />
    <glyph glyph-name="oacute" unicode="&#xf3;" horiz-adv-x="1145" 
d="M579 1091q228 0 362 -160q124 -148 124 -397q0 -261 -142 -412q-132 -141 -350 -141q-232 0 -360 154q-132 158 -132 409q0 243 130 394q131 153 368 153zM570 1002q-54 0 -106 -30.5t-82 -80.5q-81 -131 -81 -357q0 -221 82 -354q31 -50 82.5 -80t107.5 -30t107.5 30
t82.5 80q82 133 82 354q0 228 -82 359q-32 51 -83.5 80t-109.5 29zM463 1189l139 316h179l-215 -316h-103z" />
    <glyph glyph-name="ograve" unicode="&#xf2;" horiz-adv-x="1145" 
d="M579 1091q228 0 362 -160q124 -148 124 -397q0 -261 -142 -412q-132 -141 -350 -141q-232 0 -360 154q-132 158 -132 409q0 243 130 394q131 153 368 153zM570 1002q-54 0 -106 -30.5t-82 -80.5q-81 -131 -81 -357q0 -221 82 -354q31 -50 82.5 -80t107.5 -30t107.5 30
t82.5 80q82 133 82 354q0 228 -82 359q-32 51 -83.5 80t-109.5 29zM558 1189l-214 316h180l133 -316h-99z" />
    <glyph glyph-name="ocircumflex" unicode="&#xf4;" horiz-adv-x="1145" 
d="M579 1091q228 0 362 -160q124 -148 124 -397q0 -261 -142 -412q-132 -141 -350 -141q-232 0 -360 154q-132 158 -132 409q0 243 130 394q131 153 368 153zM570 1002q-54 0 -106 -30.5t-82 -80.5q-81 -131 -81 -357q0 -221 82 -354q31 -50 82.5 -80t107.5 -30t107.5 30
t82.5 80q82 133 82 354q0 228 -82 359q-32 51 -83.5 80t-109.5 29zM278 1189l234 311h134l221 -311h-153l-136 224l-145 -224h-155z" />
    <glyph glyph-name="odieresis" unicode="&#xf6;" horiz-adv-x="1145" 
d="M579 1091q228 0 362 -160q124 -148 124 -397q0 -261 -142 -412q-132 -141 -350 -141q-232 0 -360 154q-132 158 -132 409q0 243 130 394q131 153 368 153zM570 1002q-54 0 -106 -30.5t-82 -80.5q-81 -131 -81 -357q0 -221 82 -354q31 -50 82.5 -80t107.5 -30t107.5 30
t82.5 80q82 133 82 354q0 228 -82 359q-32 51 -83.5 80t-109.5 29zM357 1404q55 0 92 -25q35 -23 35 -70q0 -50 -37 -75q-36 -24 -93 -24q-62 0 -100 28q-31 23 -31 68t32 69q39 29 102 29zM795 1406q55 0 92 -25q35 -23 35 -70q0 -50 -37 -75q-36 -24 -92 -24
q-63 0 -101 28q-31 23 -31 68t32 69q39 29 102 29z" />
    <glyph glyph-name="otilde" unicode="&#xf5;" horiz-adv-x="1145" 
d="M579 1091q228 0 362 -160q124 -148 124 -397q0 -261 -142 -412q-132 -141 -350 -141q-232 0 -360 154q-132 158 -132 409q0 243 130 394q131 153 368 153zM570 1002q-54 0 -106 -30.5t-82 -80.5q-81 -131 -81 -357q0 -221 82 -354q31 -50 82.5 -80t107.5 -30t107.5 30
t82.5 80q82 133 82 354q0 228 -82 359q-32 51 -83.5 80t-109.5 29zM293 1258v150q80 35 150 35q59 0 261 -47q32 -8 64 -8q43 0 84 35v-148q-54 -28 -94 -28t-187 38q-76 19 -139 19q-68 0 -139 -46z" />
    <glyph glyph-name="uacute" unicode="&#xfa;" horiz-adv-x="1138" 
d="M796 0v146q-57 -78 -110 -112q-84 -53 -211 -53q-171 0 -263 97q-76 80 -76 231v692q0 34 -8 65h225q-8 -28 -8 -65v-669q0 -86 41 -137q54 -65 162 -65q129 0 198 84q46 58 46 141v646q0 35 -8 65h225q-8 -26 -8 -65v-935q0 -32 8 -66h-213zM469 1189l139 316h179
l-215 -316h-103z" />
    <glyph glyph-name="ugrave" unicode="&#xf9;" horiz-adv-x="1138" 
d="M796 0v146q-57 -78 -110 -112q-84 -53 -211 -53q-171 0 -263 97q-76 80 -76 231v692q0 34 -8 65h225q-8 -28 -8 -65v-669q0 -86 41 -137q54 -65 162 -65q129 0 198 84q46 58 46 141v646q0 35 -8 65h225q-8 -26 -8 -65v-935q0 -32 8 -66h-213zM563 1189l-214 316h180
l133 -316h-99z" />
    <glyph glyph-name="ucircumflex" unicode="&#xfb;" horiz-adv-x="1138" 
d="M796 0v146q-57 -78 -110 -112q-84 -53 -211 -53q-171 0 -263 97q-76 80 -76 231v692q0 34 -8 65h225q-8 -28 -8 -65v-669q0 -86 41 -137q54 -65 162 -65q129 0 198 84q46 58 46 141v646q0 35 -8 65h225q-8 -26 -8 -65v-935q0 -32 8 -66h-213zM274 1189l234 311h134
l221 -311h-153l-136 224l-145 -224h-155z" />
    <glyph glyph-name="udieresis" unicode="&#xfc;" horiz-adv-x="1138" 
d="M796 0v146q-57 -78 -110 -112q-84 -53 -211 -53q-171 0 -263 97q-76 80 -76 231v692q0 34 -8 65h225q-8 -28 -8 -65v-669q0 -86 41 -137q54 -65 162 -65q129 0 198 84q46 58 46 141v646q0 35 -8 65h225q-8 -26 -8 -65v-935q0 -32 8 -66h-213zM353 1404q55 0 92 -25
q35 -23 35 -70q0 -50 -37 -75q-36 -24 -93 -24q-62 0 -100 28q-31 23 -31 68t32 69q39 29 102 29zM791 1406q55 0 92 -25q35 -23 35 -70q0 -50 -37 -75q-36 -24 -92 -24q-63 0 -101 28q-31 23 -31 68t32 69q39 29 102 29z" />
    <glyph glyph-name="dagger" unicode="&#x2020;" horiz-adv-x="1043" 
d="M626 894h274q33 0 57 7v-129q-24 7 -57 7h-274v-1069q0 -41 8 -65h-224q6 29 6 65v1069h-272q-33 0 -57 -7v129q24 -7 57 -7h272v406q0 36 -6 65h224q-8 -23 -8 -65v-406z" />
    <glyph glyph-name="degree" unicode="&#xb0;" horiz-adv-x="1043" 
d="M527 1381q120 0 205 -93q72 -80 72 -189q0 -126 -93 -210q-81 -72 -189 -72q-126 0 -210 93q-72 81 -72 191q0 122 94 207q79 73 193 73zM519 1281q-76 0 -130 -60q-46 -52 -46 -122q0 -81 59 -135q51 -47 120 -47q80 0 133 60q46 52 46 123q0 79 -59 134q-50 47 -123 47
z" />
    <glyph glyph-name="cent" unicode="&#xa2;" horiz-adv-x="935" 
d="M585 1128v-903q135 -3 264 114v-146q-58 -33 -124.5 -52t-139.5 -23v-142h-91v146q-191 19 -289 122q-67 72 -104 184q-35 105 -35 229q0 201 86 349q101 176 342 218v137h91v-131q136 1 264 -47v-153q-126 99 -239 99q-8 0 -25 -1zM494 1108q-66 -31 -106 -84
q-100 -136 -100 -353q0 -233 103 -359q36 -43 103 -70v866z" />
    <glyph glyph-name="sterling" unicode="&#xa3;" horiz-adv-x="1043" 
d="M213 -2l-30 177q42 -31 83 -31q60 0 95 44q36 45 36 113q0 90 -78 306h-167v85h128q-94 231 -94 345q0 111 76 206q114 142 347 142q151 0 299 -63l-22 -139q-42 26 -69 41q-77 42 -163 42q-101 0 -168 -57q-82 -70 -82 -187q0 -80 46 -225q12 -36 36 -105h334v-85h-309
q5 -22 29 -126q9 -39 9 -88q0 -209 -158 -265q130 -9 193 -9q160 0 353 49v-167q-176 -21 -341 -21q-151 0 -383 18z" />
    <glyph glyph-name="section" unicode="&#xa7;" horiz-adv-x="1043" 
d="M915 1304l-47 -149q-61 49 -107 73q-89 45 -192 45q-99 0 -159 -52q-72 -61 -72 -156q0 -88 69 -144q43 -36 144 -71l196 -69q132 -47 180 -110q50 -64 50 -153q0 -95 -57 -176q-32 -45 -88 -98q87 -91 87 -223q0 -158 -107 -268q-127 -131 -364 -131q-216 0 -380 107
l57 172q74 -74 131 -107q89 -53 199 -53q119 0 189 63q77 69 77 182q0 94 -65 147q-32 26 -68 39q-6 2 -71 24l-213 72q-124 42 -178 103q-57 63 -57 154q0 112 68 206q20 27 77 93q-64 85 -64 191q0 175 136 282q112 88 296 88q192 0 333 -81zM300 757q-29 -39 -42 -59
q-33 -54 -33 -105q0 -107 182 -164l215 -67q81 -27 118 -51q82 92 82 160q0 67 -52 99q-41 25 -111 48l-212 71q-85 31 -147 68z" />
    <glyph glyph-name="bullet" unicode="&#x2022;" horiz-adv-x="1365" 
d="M689 978q113 0 196 -83q84 -83 84 -201t-84 -201q-82 -83 -200 -83t-200 83q-84 83 -84 200q0 121 84 202q85 83 204 83z" />
    <glyph glyph-name="paragraph" unicode="&#xb6;" horiz-adv-x="1043" 
d="M583 596h-49q-157 0 -273 60q-199 103 -199 336q0 210 165 309q106 64 260 64h478q-9 -30 -9 -67v-1639h-129v1617h-115v-1617h-129v937z" />
    <glyph glyph-name="germandbls" unicode="&#xdf;" horiz-adv-x="1136" 
d="M490 27v163q41 -42 66 -59q51 -35 114 -35q91 0 148 70q60 73 60 160q0 93 -92 222q-66 94 -130 156q-42 41 -60 69q-12 19 -12 46q0 28 19 63q5 9 68 108q57 90 57 187q0 100 -51 159q-55 64 -144 64q-93 0 -151 -62q-49 -52 -49 -151v-1187h-214q8 33 8 66v1097
q0 93 27.5 152t91.5 102q115 79 289 79q153 0 252 -74q106 -80 106 -206q0 -75 -49 -165q-11 -22 -74 -116q-22 -32 -22 -53q0 -22 27 -54q8 -9 135 -124q90 -81 131 -163q36 -72 36 -179q0 -166 -104 -275q-102 -107 -267 -107q-99 0 -216 47z" />
    <glyph glyph-name="registered" unicode="&#xae;" horiz-adv-x="1556" 
d="M790 1392q144 0 279 -62t236 -173q183 -202 183 -474q0 -151 -61.5 -289t-173.5 -239q-203 -182 -475 -182q-151 0 -289 61.5t-239 173.5q-182 202 -182 480q0 306 235 521q200 183 487 183zM769 1309q-126 0 -244 -54.5t-207 -153.5q-159 -177 -159 -418
q0 -134 53.5 -255.5t151.5 -210.5q176 -161 414 -161q131 0 251.5 54.5t208.5 152.5q159 179 159 424q0 271 -205 460q-175 162 -423 162zM670 635v-310q0 -22 8 -46h-178q8 22 8 46v719q0 22 -8 46h273q91 0 160 -35q118 -61 118 -191q0 -172 -224 -208l268 -333
q17 -21 47 -44h-210q-6 20 -19 37zM670 707h57q58 0 98 26q65 43 65 128q0 81 -55 125q-40 33 -115 33h-50v-312z" />
    <glyph glyph-name="copyright" unicode="&#xa9;" horiz-adv-x="1556" 
d="M790 1392q144 0 279 -62t236 -173q183 -202 183 -474q0 -151 -61.5 -289t-173.5 -239q-203 -182 -475 -182q-151 0 -289 61.5t-239 173.5q-182 202 -182 480q0 306 235 521q200 183 487 183zM769 1309q-126 0 -244 -54.5t-207 -153.5q-159 -177 -159 -418
q0 -134 53.5 -255.5t151.5 -210.5q176 -161 414 -161q131 0 251.5 54.5t208.5 152.5q159 179 159 424q0 271 -205 460q-175 162 -423 162zM1068 1062v-129q-52 38 -84 53q-58 29 -128 29q-136 0 -207 -96q-67 -90 -67 -234q0 -153 77 -244q75 -89 201 -89q72 0 132 35
q28 16 76 57v-128q-112 -51 -234 -51q-199 0 -312 104q-118 108 -118 315q0 193 110 298q122 117 339 117q114 0 215 -37z" />
    <glyph glyph-name="trademark" unicode="&#x2122;" horiz-adv-x="1736" 
d="M-13 1365h649v-91q-37 7 -63 7h-178v-688q0 -23 8 -47h-181q8 24 8 47v688h-179q-28 0 -64 -7v91zM863 1138l-94 -550q0 -14 3 -42h-102q12 31 14 47l124 731q1 5 1 10q0 7 -2 31h152q0 -22 5 -36l221 -602l224 605q4 11 4 21q0 4 -1 12h153q-2 -20 -2 -25t1 -10
l114 -739q3 -15 15 -45h-182q4 15 4 27q0 8 -1 13l-85 564l-208 -564q-6 -16 -6 -27q0 -5 1 -13h-143q1 8 1 14q0 9 -5 21z" />
    <glyph glyph-name="acute" unicode="&#xb4;" 
d="M402 1189l139 316h179l-215 -316h-103z" />
    <glyph glyph-name="dieresis" unicode="&#xa8;" 
d="M296 1404q55 0 92 -25q35 -23 35 -70q0 -50 -37 -75q-36 -24 -93 -24q-62 0 -100 28q-31 23 -31 68t32 69q39 29 102 29zM734 1406q55 0 92 -25q35 -23 35 -70q0 -50 -37 -75q-36 -24 -92 -24q-63 0 -101 28q-31 23 -31 68t32 69q39 29 102 29z" />
    <glyph glyph-name="notequal" unicode="&#x2260;" horiz-adv-x="1043" 
d="M368 486h-265v126h324l66 142h-390v126h449l117 251l101 -48l-95 -203h265v-126h-324l-66 -142h390v-126h-449l-117 -251l-101 48z" />
    <glyph glyph-name="AE" unicode="&#xc6;" horiz-adv-x="1630" 
d="M1530 1365v-111q-30 10 -63 10h-407v-520h395q44 0 76 9v-111q-27 6 -73 6h-398v-538h395q33 0 76 10v-120h-708q9 28 9 65v361h-477l-216 -369q-15 -27 -24 -57h-135q22 29 50 77l704 1216q20 36 29 72h767zM832 529v737l-425 -737h425z" />
    <glyph glyph-name="Oslash" unicode="&#xd8;" horiz-adv-x="1512" 
d="M1300 1146q129 -177 129 -465q0 -343 -185 -527q-175 -174 -491 -174q-295 0 -464 152l-132 -132h-164l219 220q-129 185 -129 467q0 342 188 527q175 171 485 171q287 0 465 -153l133 133h165zM1081 1119q-58 83 -136 121.5t-189 38.5q-226 0 -333 -170
q-97 -156 -97 -423q0 -195 48 -328zM1138 1008l-708 -761q112 -161 328 -161q217 0 328 170q100 154 100 418q0 206 -48 334z" />
    <glyph glyph-name="infinity" unicode="&#x221e;" horiz-adv-x="1365" 
d="M687 594q-50 -66 -93 -108q-107 -105 -247 -105q-142 0 -230 98q-79 87 -79 221q0 136 85 222q88 90 224 90q183 0 333 -213q46 65 91 107q111 105 248 105q148 0 237 -104q72 -85 72 -212q0 -138 -85 -225q-88 -89 -223 -89q-133 0 -242 104q-44 42 -91 109zM760 697
q32 -50 60 -83q84 -96 181 -96q72 0 121 50t49 129q0 84 -57 134q-48 43 -115 43q-100 0 -185 -102q-11 -14 -33 -44t-21 -31zM607 696q-33 50 -61 83q-84 96 -183 96q-72 0 -119 -49q-49 -50 -49 -130q0 -85 56 -135q49 -43 116 -43q101 0 185 103q12 13 33.5 43.5
t21.5 31.5z" />
    <glyph glyph-name="plusminus" unicode="&#xb1;" horiz-adv-x="1043" 
d="M458 653h-355v126h355v343h126v-343h356v-126h-356v-343h-126v343zM103 76v126h837v-126h-837z" />
    <glyph glyph-name="lessequal" unicode="&#x2264;" 
d="M955 1263v-212l-640 -234l640 -233v-212l-887 350v192zM955 315v-199h-887v199h887z" />
    <glyph glyph-name="greaterequal" unicode="&#x2265;" 
d="M68 1263l887 -349v-192l-887 -350v212l640 233l-640 234v212zM68 315h887v-199h-887v199z" />
    <glyph glyph-name="yen" unicode="&#xa5;" horiz-adv-x="1001" 
d="M380 617l-79 173h-230v75h197l-204 445q-15 31 -33 55h259q1 -17 20 -59l250 -566l262 569q13 29 19 56h130q-19 -25 -32 -51l-209 -449h201v-75h-235l-80 -173h315v-75h-322v-476q0 -38 9 -66h-239q9 30 9 66v476h-317v75h309z" />
    <glyph glyph-name="mu" unicode="&#xb5;" horiz-adv-x="1142" 
d="M128 1066h225q-8 -28 -8 -65v-669q0 -85 41 -136q54 -65 162 -65q129 0 198 84q46 57 46 140v646q0 35 -8 65h225q-8 -26 -8 -65v-935q0 -32 8 -66h-213v146q-62 -92 -136 -123q-66 -27 -150 -27q-110 0 -171 55v-305q0 -34 8 -65h-219q8 31 8 65v1255q0 34 -8 65z" />
    <glyph glyph-name="partialdiff" unicode="&#x2202;" 
d="M156 1196l25 169q176 -22 307 -74q127 -50 229.5 -144.5t162.5 -216.5q92 -185 92 -419t-112 -372q-64 -77 -157 -120t-199 -43q-201 0 -329 143q-123 139 -123 327q0 149 84 266q70 99 185 144q78 30 162 30q119 0 188 -52q13 -11 67 -59q6 -6 19 -18q-7 17 -10 23
q-52 118 -75 150q-91 118 -249 191q-117 54 -267 75zM517 725q-94 0 -167 -61q-47 -40 -74.5 -101t-27.5 -127q0 -127 86 -212q76 -76 182 -76q92 0 164 64q95 85 95 231q0 134 -82 212q-72 70 -176 70z" />
    <glyph glyph-name="summation" unicode="&#x2211;" horiz-adv-x="1365" 
d="M1244 1536v-492h-195l-22 293h-717l504 -789l-503 -863h735l13 299h204v-496h-1193v228l490 832l-490 761v227h1174z" />
    <glyph glyph-name="product" unicode="&#x220f;" horiz-adv-x="1365" 
d="M48 1536h1269v-174h-149v-1700h149v-174h-489v174h146v1700h-583v-1700h144v-174h-487v174h151v1700h-151v174z" />
    <glyph glyph-name="glyph155" horiz-adv-x="558" 
 />
    <glyph glyph-name="integral" unicode="&#x222b;" 
d="M155 -490l40 202q47 -20 83 -20q82 0 106 63q13 33 13 206v1064q0 242 19 313q26 98 123 156q72 42 179 42q52 0 151 -22l-40 -202q-48 21 -85 21q-74 0 -100 -54q-17 -36 -17 -150v-1186q0 -172 -14 -237q-14 -60 -59 -110.5t-105 -73.5q-87 -32 -188 -32q-38 0 -83 14
q-14 4 -23 6z" />
    <glyph glyph-name="ordfeminine" unicode="&#xaa;" horiz-adv-x="840" 
d="M516 636q-67 -101 -206 -101q-79 0 -130 44q-62 53 -62 143q0 108 88 160q62 37 220 79q67 17 78 53q4 13 4 25q0 33 -26 55q-31 28 -88 28q-64 0 -121 -32q-21 -12 -61 -40l-27 98q129 56 246 56t180 -48q50 -38 50 -105v-373q0 -46 31 -46q17 0 53 27v-89
q-58 -35 -110 -35q-64 0 -92 36q-12 16 -27 65zM508 918q-29 -14 -127 -47q-122 -40 -122 -135q0 -50 30 -81q27 -27 74 -27q75 0 118 58q27 37 27 79v153z" />
    <glyph glyph-name="ordmasculine" unicode="&#xba;" horiz-adv-x="840" 
d="M425 1204q149 0 238 -97q82 -89 82 -238q0 -157 -94 -249q-87 -85 -231 -85q-151 0 -236 93q-88 96 -88 246q0 147 86 238q87 92 243 92zM419 1136q-73 0 -113 -61q-50 -75 -50 -207q0 -128 51 -204q40 -61 113 -61q74 0 115 61q50 76 50 205q0 132 -50 206
q-41 61 -116 61z" />
    <glyph glyph-name="Ohm" unicode="&#x2126;" horiz-adv-x="1365" 
d="M57 0v187h337q-342 202 -342 560q0 291 206 485q176 166 422 166q256 0 434 -170q96 -92 147.5 -216.5t51.5 -264.5q0 -360 -342 -560h337v-187h-541v174q127 69 199 162q129 167 129 376q0 217 -131 366q-114 131 -279 131q-167 0 -285 -131q-130 -144 -130 -368
q0 -359 328 -536v-174h-541z" />
    <glyph glyph-name="ae" unicode="&#xe6;" horiz-adv-x="1654" 
d="M1586 571h-725q1 -175 38 -280q74 -209 305 -209q157 0 299 124l32 -135q-77 -38 -132 -57q-101 -33 -223 -33q-182 0 -290 65q-119 71 -174 180q-56 -89 -113 -141q-114 -104 -272 -104q-120 0 -194 71q-90 87 -90 233q0 175 128 261q74 50 165 79q48 16 170 53
q74 23 106 55q31 32 31 94q0 60 -45 103q-52 49 -145 49q-101 0 -190 -56q-29 -18 -79 -57l-34 136q74 35 125 52q109 37 236 37q207 0 292 -138q53 51 81 70q46 30 116.5 49t138.5 19q154 0 266 -88q165 -131 177 -432zM647 636q-37 -21 -48 -26q-81 -31 -161 -63
q-188 -75 -188 -241q0 -82 49 -139q43 -48 119 -48q119 0 186 101q43 64 43 138v278zM867 665h496q-8 90 -25 147q-26 85 -90 137q-53 43 -126 43q-67 0 -123 -40t-89 -112q-32 -71 -43 -175z" />
    <glyph glyph-name="oslash" unicode="&#xf8;" horiz-adv-x="1145" 
d="M980 876q85 -145 85 -343q0 -260 -142 -411q-132 -141 -349 -141q-214 0 -344 134l-114 -115h-133l189 191q-91 153 -91 356q0 239 130 391q130 153 360 153q216 0 351 -138l105 107h135zM791 840q-74 162 -218 162q-56 0 -109 -30.5t-83 -80.5q-81 -132 -81 -356
q0 -103 23 -206zM824 734l-466 -508q74 -156 215 -156q55 0 107 30t83 80q82 132 82 357q0 99 -21 197z" />
    <glyph glyph-name="questiondown" unicode="&#xbf;" horiz-adv-x="746" 
d="M603 -94l8 -135q-118 -78 -257 -78q-119 0 -193 65q-79 69 -79 172q0 85 59 187q46 79 132 190q73 93 90 127q23 47 23 86q0 47 -36 74q-31 23 -70 23q-48 0 -109 -47l-8 112q97 53 190 53q107 0 177 -73q62 -64 62 -147q0 -74 -43 -143q-40 -67 -109 -155
q-88 -114 -117 -171q-25 -50 -25 -96q0 -59 33 -96q34 -38 86 -38q86 0 186 90zM386 1091q54 0 91 -30q43 -36 43 -89q0 -52 -43 -88q-37 -30 -94 -30t-94 30q-43 35 -43 88q0 55 43 89q38 30 97 30z" />
    <glyph glyph-name="exclamdown" unicode="&#xa1;" horiz-adv-x="564" 
d="M360 722l36 -951q2 -42 10 -59h-256q7 20 9 59l36 951h165zM281 1091q55 0 91 -30q43 -36 43 -89q0 -52 -43 -88q-37 -30 -94 -30t-94 30q-43 35 -43 88q0 55 43 89q38 30 97 30z" />
    <glyph glyph-name="logicalnot" unicode="&#xac;" 
d="M734 0v381h-666v199h887v-580h-221z" />
    <glyph glyph-name="radical" unicode="&#x221a;" horiz-adv-x="1365" 
d="M1365 1693v-179h-373l-425 -1514h-243l-153 569h-171v179h295l75 -258q10 -38 51 -251l6 -32h12q41 199 67 303.5t107 393.5l221 789h531z" />
    <glyph glyph-name="florin" unicode="&#x192;" horiz-adv-x="1043" 
d="M462 849h-201l15 87h202l51 293q21 114 100 173q99 72 258 72q102 0 245 -39l-63 -118q-91 51 -161 51q-73 0 -118 -39q-34 -31 -47 -103l-51 -290h306l-16 -87h-305l-159 -897q-20 -113 -100 -173q-97 -72 -260 -72q-103 0 -247 39l63 118q90 -51 167 -51q72 0 117 39
q34 31 47 103z" />
    <glyph glyph-name="approxequal" unicode="&#x2248;" 
d="M135 712l-115 80q43 93 83 144q86 108 206 108q72 0 226 -73q85 -41 114 -51q41 -14 74 -14q91 0 167 129l115 -79q-46 -101 -91 -154q-83 -100 -196 -100q-49 0 -117 27q-31 12 -104 46q-142 65 -197 65q-59 0 -105 -48q-28 -29 -60 -80zM135 321l-115 80q42 92 83 144
q87 108 206 108q73 0 226 -72q86 -41 114 -50q41 -14 74 -14q61 0 107 46q29 30 60 81l115 -79q-46 -101 -91 -154q-83 -100 -196 -100q-49 0 -117 27q-33 13 -104 46q-142 65 -198 65q-85 0 -164 -128z" />
    <glyph glyph-name="increment" unicode="&#x2206;" horiz-adv-x="1297" 
d="M14 0l522 1365h222l524 -1365h-1268zM290 187h712l-354 949z" />
    <glyph glyph-name="guillemotleft" unicode="&#xab;" horiz-adv-x="818" 
d="M735 166h-157l-212 401l212 403h157l-216 -403zM461 166h-157l-212 401l212 403h157l-216 -403z" />
    <glyph glyph-name="guillemotright" unicode="&#xbb;" horiz-adv-x="818" 
d="M83 166l216 401l-216 403h157l212 -403l-212 -401h-157zM357 166l216 401l-216 403h157l212 -403l-212 -401h-157z" />
    <glyph glyph-name="ellipsis" unicode="&#x2026;" horiz-adv-x="1606" 
d="M269 223q56 0 93 -30q43 -35 43 -89q0 -53 -43 -88q-37 -30 -94 -30t-94 30q-43 36 -43 88q0 54 43 89q37 30 95 30zM804 223q56 0 93 -30q43 -35 43 -89q0 -53 -43 -88q-37 -30 -95 -30q-56 0 -93 30q-43 36 -43 88q0 54 43 89q37 30 95 30zM1340 223q55 0 92 -30
q43 -35 43 -89q0 -53 -43 -88q-37 -30 -94 -30t-93 30q-43 36 -43 88q0 54 43 89q37 30 95 30z" />
    <glyph glyph-name="glyph172" horiz-adv-x="1043" 
 />
    <glyph glyph-name="Agrave" unicode="&#xc0;" horiz-adv-x="1180" 
d="M266 428l-132 -371q-9 -25 -8 -57h-129q19 30 28 57l447 1258q9 26 9 50h199q1 -21 9 -45l461 -1263q10 -24 33 -57h-267q0 27 -10 57l-131 371h-509zM301 528h436l-221 617zM534 1444l-214 316h180l133 -316h-99z" />
    <glyph glyph-name="Atilde" unicode="&#xc3;" horiz-adv-x="1180" 
d="M266 428l-132 -371q-9 -25 -8 -57h-129q19 30 28 57l447 1258q9 26 9 50h199q1 -21 9 -45l461 -1263q10 -24 33 -57h-267q0 27 -10 57l-131 371h-509zM301 528h436l-221 617zM285 1530v141q103 34 167 34q58 0 246 -47q31 -7 61 -7q47 0 107 35v-140q-70 -27 -115 -27
q-36 0 -177 35q-81 20 -135 20q-65 0 -154 -44z" />
    <glyph glyph-name="Otilde" unicode="&#xd5;" horiz-adv-x="1512" 
d="M765 1385q294 0 470 -166q194 -184 194 -535q0 -346 -185 -530q-175 -174 -490 -174q-331 0 -499 186q-172 190 -172 517q0 347 188 531q176 171 494 171zM749 1279q-218 0 -325 -170q-97 -155 -97 -425q0 -271 97 -427q106 -171 334 -171q217 0 328 170q100 153 100 420
q0 603 -437 603zM465 1530v141q103 34 167 34q58 0 246 -47q31 -7 61 -7q47 0 107 35v-140q-70 -27 -115 -27q-36 0 -177 35q-81 20 -135 20q-65 0 -154 -44z" />
    <glyph glyph-name="OE" unicode="&#x152;" horiz-adv-x="1815" 
d="M1716 1365v-112q-30 11 -69 11h-402v-520h391q48 0 81 10v-112q-29 6 -80 6h-392v-538h397q32 0 75 10v-120h-686q-42 -1 -203 -15q-57 -5 -108 -5q-297 0 -483 210q-155 175 -155 460q0 329 183 530q187 205 495 205l311 -20h645zM1017 282v802q0 93 -66 141
q-75 54 -191 54q-184 0 -295 -134q-139 -168 -139 -465q0 -301 125 -454q112 -140 320 -140q115 0 182 54q45 37 57 77q7 22 7 65z" />
    <glyph glyph-name="oe" unicode="&#x153;" horiz-adv-x="1837" 
d="M1770 571h-725q1 -174 38 -280q74 -209 305 -209q157 0 300 124l32 -135q-179 -90 -348 -90q-152 0 -250 50q-103 52 -182 143q-48 -58 -95 -96q-65 -51 -125 -73q-66 -24 -155 -24q-228 0 -354 154q-130 158 -130 411q0 241 128 392q128 153 350 153q169 0 285 -93
q43 -33 97 -99q156 192 381 192q262 0 378 -220q64 -119 70 -300zM563 1002q-53 0 -104 -30.5t-80 -80.5q-79 -131 -79 -357q0 -220 80 -354q30 -50 80.5 -80t104.5 -30q55 0 105.5 30t80.5 80q80 133 80 354q0 228 -80 359q-31 51 -81.5 80t-106.5 29zM1051 665h496
q-7 91 -25 148q-26 85 -89 137q-53 43 -126 43q-96 0 -164 -77q-75 -84 -92 -251z" />
    <glyph glyph-name="endash" unicode="&#x2013;" horiz-adv-x="1143" 
d="M128 477l47 161h840l-46 -161h-841z" />
    <glyph glyph-name="emdash" unicode="&#x2014;" horiz-adv-x="1449" 
d="M0 477l47 161h1402l-45 -161h-1404z" />
    <glyph glyph-name="quotedblleft" unicode="&#x201c;" horiz-adv-x="847" 
d="M277 916l-177 74l220 402l132 -56zM586 916l-177 74l220 402l133 -56z" />
    <glyph glyph-name="quotedblright" unicode="&#x201d;" horiz-adv-x="847" 
d="M260 1392l177 -74l-220 -402l-132 57zM569 1392l178 -74l-221 -402l-132 57z" />
    <glyph glyph-name="quoteleft" unicode="&#x2018;" horiz-adv-x="538" 
d="M305 1392l132 -56l-175 -420l-177 74z" />
    <glyph glyph-name="quoteright" unicode="&#x2019;" horiz-adv-x="538" 
d="M260 1392l177 -74l-220 -402l-132 57z" />
    <glyph glyph-name="divide" unicode="&#xf7;" horiz-adv-x="1043" 
d="M103 620v126h837v-126h-837zM523 1084q45 0 77 -24q38 -30 38 -75q0 -46 -38 -76q-32 -24 -79 -24t-78 24q-38 31 -38 75q0 46 38 76q32 24 80 24zM523 480q45 0 77 -24q38 -30 38 -76q0 -45 -38 -75q-32 -24 -79 -24t-78 24q-38 30 -38 75q0 46 38 76q32 24 80 24z" />
    <glyph glyph-name="lozenge" unicode="&#x25ca;" horiz-adv-x="1365" 
d="M683 1419l532 -736l-532 -736l-532 736zM683 1237l-404 -554l404 -555l403 555z" />
    <glyph glyph-name="ydieresis" unicode="&#xff;" horiz-adv-x="893" 
d="M364 0l-365 1007q-7 21 -26 59h243q6 -35 15 -59l250 -719l295 719q12 31 17 59h127q-19 -32 -30 -59l-524 -1267q-12 -28 -18 -59h-130q21 34 31 59zM231 1404q55 0 92 -25q35 -23 35 -70q0 -50 -37 -75q-36 -24 -93 -24q-62 0 -100 28q-31 23 -31 68t32 69
q39 29 102 29zM669 1406q55 0 92 -25q35 -23 35 -70q0 -50 -37 -75q-36 -24 -92 -24q-63 0 -101 28q-31 23 -31 68t32 69q39 29 102 29z" />
    <glyph glyph-name="Ydieresis" unicode="&#x178;" horiz-adv-x="916" 
d="M342 598l-352 712q-17 35 -32 55h265q2 -20 20 -59l278 -566l289 569q12 24 19 56h129q-15 -21 -31 -51l-357 -713v-535q0 -37 9 -66h-246q9 30 9 66v532zM243 1669q55 0 92 -25q35 -23 35 -70q0 -50 -37 -75q-36 -24 -93 -24q-62 0 -100 28q-31 23 -31 68t32 69
q39 29 102 29zM681 1671q55 0 92 -25q35 -23 35 -70q0 -50 -37 -75q-36 -24 -92 -24q-63 0 -101 28q-31 23 -31 68q0 44 32 69q39 29 102 29z" />
    <glyph glyph-name="fraction" unicode="&#x2044;" horiz-adv-x="289" 
d="M-217 0l613 1365h110l-613 -1365h-110z" />
    <glyph glyph-name="currency" unicode="&#xa4;" horiz-adv-x="1043" 
d="M756 371q-114 -80 -234 -80q-122 0 -235 80l-137 -138l-77 78l137 137q-79 116 -79 234q0 125 79 235l-137 136l77 78l137 -136q120 78 236 78q118 0 234 -78l136 136l78 -78l-137 -136q79 -112 79 -234q0 -119 -80 -235l138 -137l-78 -78zM518 938q-108 0 -184 -85
q-65 -73 -65 -171q0 -114 84 -190q72 -66 169 -66q113 0 188 85q65 73 65 173q0 110 -84 188q-71 66 -173 66z" />
    <glyph glyph-name="guilsinglleft" unicode="&#x2039;" horiz-adv-x="544" 
d="M461 166h-157l-212 401l212 403h157l-216 -403z" />
    <glyph glyph-name="guilsinglright" unicode="&#x203a;" horiz-adv-x="544" 
d="M83 166l216 401l-216 403h157l212 -403l-212 -401h-157z" />
    <glyph glyph-name="fi" unicode="&#xf001;" horiz-adv-x="1048" 
d="M156 967h-114v99h114v142q0 133 92 201q116 86 314 86q151 0 358 -63l-36 -119q-157 76 -287 76q-116 0 -181 -49q-51 -38 -51 -126v-148h544q-8 -31 -8 -66v-935q0 -33 8 -65h-225q8 29 8 65v902h-327v-902q0 -34 8 -65h-225q8 30 8 66v901z" />
    <glyph glyph-name="fi" unicode="&#xfb01;" horiz-adv-x="1048" 
d="M156 967h-114v99h114v142q0 133 92 201q116 86 314 86q151 0 358 -63l-36 -119q-157 76 -287 76q-116 0 -181 -49q-51 -38 -51 -126v-148h544q-8 -31 -8 -66v-935q0 -33 8 -65h-225q8 29 8 65v902h-327v-902q0 -34 8 -65h-225q8 30 8 66v901z" />
    <glyph glyph-name="fl" unicode="&#xf002;" horiz-adv-x="991" 
d="M156 967h-114v99h114v183q0 115 69 173q87 73 229 73q60 0 136 -11q81 -12 106 -12q14 0 36 2l190 21q-8 -30 -8 -66v-1364q0 -34 8 -65h-225q8 30 8 65v1281q-105 43 -196 43q-78 0 -115 -39q-29 -31 -29 -104v-180h273v-99h-273v-902q0 -34 8 -65h-225q8 30 8 66v901z
" />
    <glyph glyph-name="fl" unicode="&#xfb02;" horiz-adv-x="991" 
d="M156 967h-114v99h114v183q0 115 69 173q87 73 229 73q60 0 136 -11q81 -12 106 -12q14 0 36 2l190 21q-8 -30 -8 -66v-1364q0 -34 8 -65h-225q8 30 8 65v1281q-105 43 -196 43q-78 0 -115 -39q-29 -31 -29 -104v-180h273v-99h-273v-902q0 -34 8 -65h-225q8 30 8 66v901z
" />
    <glyph glyph-name="daggerdbl" unicode="&#x2021;" horiz-adv-x="1043" 
d="M626 914h274q33 0 57 7v-129q-24 7 -57 7h-274v-328h274q33 0 57 7v-129q-24 7 -57 7h-274v-646q0 -41 8 -65h-225q8 24 8 65v646h-273q-33 0 -57 -7v129q24 -7 57 -7h273v328h-273q-33 0 -57 -7v129q24 -7 57 -7h273v387q0 41 -8 64h225q-8 -23 -8 -64v-387z" />
    <glyph glyph-name="periodcentered" unicode="&#x2219;" horiz-adv-x="535" 
d="M269 672q56 0 93 -30q43 -35 43 -88q0 -54 -43 -89q-37 -30 -94 -30q-58 0 -94 30q-43 36 -43 88q0 54 43 89q37 30 95 30z" />
    <glyph glyph-name="quotesinglbase" unicode="&#x201a;" horiz-adv-x="538" 
d="M260 233l177 -74l-220 -402l-132 56z" />
    <glyph glyph-name="quotedblbase" unicode="&#x201e;" horiz-adv-x="847" 
d="M260 233l177 -74l-220 -402l-132 56zM569 233l178 -74l-221 -402l-132 56z" />
    <glyph glyph-name="perthousand" unicode="&#x2030;" horiz-adv-x="2342" 
d="M400 1385q63 0 124 -31.5t105 -85.5q87 -110 87 -269q0 -154 -87 -268q-42 -54 -104 -85t-130 -31q-138 0 -231 114q-86 107 -86 269q0 166 86 271q95 116 236 116zM393 1294q-69 0 -112 -75q-43 -76 -43 -209q0 -149 46 -234q38 -70 112 -70q72 0 109 68q51 93 51 225
q0 130 -49 221q-39 74 -114 74zM439 0l610 1365h115l-610 -1365h-115zM1209 750q64 0 125 -31t105 -86q87 -110 87 -268q0 -155 -87 -269q-42 -54 -104 -85t-130 -31q-138 0 -231 115q-86 106 -86 268q0 166 86 271q95 116 235 116zM1203 659q-69 0 -112 -75
q-43 -77 -43 -210q0 -148 46 -233q38 -70 111 -70t110 68q51 93 51 225q0 129 -49 221q-40 74 -114 74zM1948 750q136 0 229 -117q87 -110 87 -268q0 -155 -87 -269q-41 -54 -103.5 -85t-129.5 -31q-138 0 -231 115q-86 106 -86 268q0 166 86 271q95 116 235 116zM1942 659
q-70 0 -112 -75q-43 -77 -43 -211q0 -147 46 -232q38 -70 111 -70t109 68q51 93 51 225q0 130 -48 221q-40 74 -114 74z" />
    <glyph glyph-name="Acircumflex" unicode="&#xc2;" horiz-adv-x="1180" 
d="M266 428l-132 -371q-9 -25 -8 -57h-129q19 30 28 57l447 1258q9 26 9 50h199q1 -21 9 -45l461 -1263q10 -24 33 -57h-267q0 27 -10 57l-131 371h-509zM301 528h436l-221 617zM254 1469l261 270h134l249 -270h-153l-164 189l-172 -189h-155z" />
    <glyph glyph-name="Ecircumflex" unicode="&#xca;" horiz-adv-x="950" 
d="M144 1365h708v-111q-31 10 -64 10h-407v-520h396q43 0 75 9v-111q-27 6 -73 6h-398v-538h395q33 0 76 10v-120h-707q8 30 8 65v1234q0 41 -9 66zM172 1469l261 270h134l249 -270h-153l-164 189l-172 -189h-155z" />
    <glyph glyph-name="Aacute" unicode="&#xc1;" horiz-adv-x="1180" 
d="M266 428l-132 -371q-9 -25 -8 -57h-129q19 30 28 57l447 1258q9 26 9 50h199q1 -21 9 -45l461 -1263q10 -24 33 -57h-267q0 27 -10 57l-131 371h-509zM301 528h436l-221 617zM517 1444l139 316h179l-215 -316h-103z" />
    <glyph glyph-name="Edieresis" unicode="&#xcb;" horiz-adv-x="950" 
d="M132 1365h708v-111q-31 10 -64 10h-407v-520h396q43 0 75 9v-111q-27 6 -73 6h-398v-538h395q33 0 76 10v-120h-707q8 30 8 65v1234q0 41 -9 66zM267 1669q55 0 92 -25q35 -23 35 -70q0 -50 -37 -75q-36 -24 -93 -24q-62 0 -100 28q-31 23 -31 68t32 69q39 29 102 29z
M705 1671q55 0 92 -25q35 -23 35 -70q0 -50 -37 -75q-36 -24 -92 -24q-63 0 -101 28q-31 23 -31 68q0 44 32 69q39 29 102 29z" />
    <glyph glyph-name="Egrave" unicode="&#xc8;" horiz-adv-x="950" 
d="M144 1365h708v-111q-31 10 -64 10h-407v-520h396q43 0 75 9v-111q-27 6 -73 6h-398v-538h395q33 0 76 10v-120h-707q8 30 8 65v1234q0 41 -9 66zM484 1444l-214 316h180l133 -316h-99z" />
    <glyph glyph-name="Iacute" unicode="&#xcd;" horiz-adv-x="558" 
d="M156 1365h246q-8 -24 -9 -65v-1234q1 -42 9 -66h-246q9 30 9 66v1234q0 35 -9 65zM206 1444l139 316h179l-215 -316h-103z" />
    <glyph glyph-name="Icircumflex" unicode="&#xce;" horiz-adv-x="558" 
d="M156 1365h246q-9 -24 -9 -65v-1234q0 -42 9 -66h-246q9 30 9 66v1234q0 35 -9 65zM3 1469l215 270h134l202 -270h-153l-118 189l-125 -189h-155z" />
    <glyph glyph-name="Idieresis" unicode="&#xcf;" horiz-adv-x="558" 
d="M156 1365h246q-8 -24 -9 -65v-1234q1 -42 9 -66h-246q9 30 9 66v1234q0 35 -9 65zM117 1669q53 0 87 -25q34 -24 34 -70q0 -49 -36 -75q-34 -24 -87 -24q-59 0 -95 28q-30 24 -30 68t31 69q36 29 96 29zM448 1671q52 0 87 -25q34 -24 34 -70q0 -49 -36 -75
q-34 -24 -88 -24q-58 0 -95 28q-30 24 -30 68t31 69q36 29 97 29z" />
    <glyph glyph-name="Igrave" unicode="&#xcc;" horiz-adv-x="558" 
d="M156 1365h246q-8 -24 -9 -65v-1234q1 -42 9 -66h-246q9 30 9 66v1234q0 35 -9 65zM246 1444l-214 316h180l133 -316h-99z" />
    <glyph glyph-name="Oacute" unicode="&#xd3;" horiz-adv-x="1512" 
d="M765 1385q294 0 470 -166q194 -184 194 -535q0 -346 -185 -530q-175 -174 -490 -174q-331 0 -499 186q-172 190 -172 517q0 347 188 531q176 171 494 171zM749 1279q-218 0 -325 -170q-97 -155 -97 -425q0 -271 97 -427q106 -171 334 -171q217 0 328 170q100 153 100 420
q0 603 -437 603zM638 1444l139 316h179l-215 -316h-103z" />
    <glyph glyph-name="Ocircumflex" unicode="&#xd4;" horiz-adv-x="1512" 
d="M765 1385q294 0 470 -166q194 -184 194 -535q0 -346 -185 -530q-175 -174 -490 -174q-331 0 -499 186q-172 190 -172 517q0 347 188 531q176 171 494 171zM749 1279q-218 0 -325 -170q-97 -155 -97 -425q0 -271 97 -427q106 -171 334 -171q217 0 328 170q100 153 100 420
q0 603 -437 603zM434 1469l261 270h134l249 -270h-153l-164 189l-172 -189h-155z" />
    <glyph glyph-name="glyph210" horiz-adv-x="558" 
 />
    <glyph glyph-name="Ograve" unicode="&#xd2;" horiz-adv-x="1512" 
d="M765 1385q294 0 470 -166q194 -184 194 -535q0 -346 -185 -530q-175 -174 -490 -174q-331 0 -499 186q-172 190 -172 517q0 347 188 531q176 171 494 171zM749 1279q-218 0 -325 -170q-97 -155 -97 -425q0 -271 97 -427q106 -171 334 -171q217 0 328 170q100 153 100 420
q0 603 -437 603zM737 1444l-214 316h180l133 -316h-99z" />
    <glyph glyph-name="Uacute" unicode="&#xda;" horiz-adv-x="1357" 
d="M1227 1365q-9 -28 -9 -66v-847q0 -164 -78 -277q-68 -99 -184.5 -147t-287.5 -48q-152 0 -257 41.5t-175 129.5q-96 121 -96 290v858q0 36 -9 66h246q-9 -31 -9 -65v-863q0 -122 57 -206q94 -140 303 -140q227 0 324 140q64 93 64 237v831q-1 40 -9 66h120zM630 1444
l139 316h179l-215 -316h-103z" />
    <glyph glyph-name="Ucircumflex" unicode="&#xdb;" horiz-adv-x="1357" 
d="M1227 1365q-9 -28 -9 -66v-847q0 -164 -78 -277q-68 -99 -184.5 -147t-287.5 -48q-152 0 -257 41.5t-175 129.5q-96 121 -96 290v858q0 36 -9 66h246q-9 -31 -9 -65v-863q0 -122 57 -206q94 -140 303 -140q227 0 324 140q64 93 64 237v831q-1 40 -9 66h120zM382 1469
l261 270h134l249 -270h-153l-164 189l-172 -189h-155z" />
    <glyph glyph-name="Ugrave" unicode="&#xd9;" horiz-adv-x="1357" 
d="M1227 1365q-9 -28 -9 -66v-847q0 -164 -78 -277q-68 -99 -184.5 -147t-287.5 -48q-152 0 -257 41.5t-175 129.5q-96 121 -96 290v858q0 36 -9 66h246q-9 -31 -9 -65v-863q0 -122 57 -206q94 -140 303 -140q227 0 324 140q64 93 64 237v831q-1 40 -9 66h120zM699 1444
l-214 316h180l133 -316h-99z" />
    <glyph glyph-name="dotlessi" unicode="&#x131;" horiz-adv-x="501" 
d="M136 1066h225q-8 -31 -8 -66v-934q0 -34 8 -66h-225q8 31 8 66v934q0 37 -8 66z" />
    <glyph glyph-name="circumflex" unicode="&#x2c6;" 
d="M217 1189l234 311h134l221 -311h-153l-136 224l-145 -224h-155z" />
    <glyph glyph-name="tilde" unicode="&#x2dc;" 
d="M232 1258v150q80 35 150 35q59 0 261 -47q32 -8 64 -8q43 0 84 35v-148q-54 -28 -94 -28t-187 38q-76 19 -139 19q-68 0 -139 -46z" />
    <glyph glyph-name="macron" unicode="&#x2c9;" 
d="M183 1241v136h659v-136h-659z" />
    <glyph glyph-name="breve" unicode="&#x2d8;" 
d="M706 1493h127q-13 -90 -62 -161q-99 -140 -274 -140q-148 0 -236 119q-55 73 -70 182h121q15 -70 51 -112q57 -67 140 -67q97 0 162 90q27 37 41 89z" />
    <glyph glyph-name="dotaccent" unicode="&#x2d9;" 
d="M515 1404q55 0 92 -25q35 -23 35 -70q0 -50 -37 -75q-36 -24 -93 -24q-62 0 -100 28q-31 23 -31 68t32 69q39 29 102 29z" />
    <glyph glyph-name="ring" unicode="&#x2da;" 
d="M513 1549q75 0 129 -55q53 -53 53 -130q0 -76 -53 -130q-54 -54 -131 -54q-76 0 -128 53q-54 57 -54 131q0 75 54 131q52 54 130 54zM510 1462q-41 0 -69 -29q-29 -30 -29 -69q0 -38 29 -68q28 -29 70 -29q43 0 72 29t29 69q0 39 -28 68q-30 29 -74 29z" />
    <glyph glyph-name="cedilla" unicode="&#xb8;" 
d="M406 -408l87 308h162l-148 -308h-101z" />
    <glyph glyph-name="hungarumlaut" unicode="&#x2dd;" 
d="M275 1204l116 264h166l-191 -264h-91zM585 1204l116 264h166l-191 -264h-91z" />
    <glyph glyph-name="ogonek" unicode="&#x2db;" 
d="M887 -208l3 -112q-79 -42 -154 -42q-79 0 -132 53q-52 52 -52 127q0 58 41 121q10 16 43 61h118q-81 -85 -81 -158q0 -41 28 -69q25 -25 63 -25q57 0 123 44z" />
    <glyph glyph-name="caron" unicode="&#x2c7;" 
d="M806 1500l-233 -311h-135l-221 311h153l137 -225l145 225h154z" />
    <glyph glyph-name="nbspace" unicode="&#xa0;" horiz-adv-x="558" 
 />
    <glyph glyph-name="brokenbar" unicode="&#xa6;" 
d="M398 1365h227v-700h-227v700zM398 314h227v-655h-227v655z" />
    <glyph glyph-name="sfthyphen" unicode="&#xad;" horiz-adv-x="483" 
d="M0 477l47 161h436l-45 -161h-438z" />
    <glyph glyph-name="overscore" unicode="&#xaf;" 
d="M0 1604h1024v-126h-1024v126z" />
    <glyph glyph-name="twosuperior" unicode="&#xb2;" horiz-adv-x="706" 
d="M88 645q331 276 331 506q0 63 -34 99q-37 40 -104 40q-74 0 -156 -54l-17 101q120 40 211 40q115 0 183 -53q81 -64 81 -160q0 -160 -209 -379q-75 -79 -140 -127h293q44 0 68 8v-120h-515q8 22 8 43v56z" />
    <glyph glyph-name="threesuperior" unicode="&#xb3;" horiz-adv-x="706" 
d="M111 694q85 -74 165 -74q60 0 98 43t38 116q0 74 -41 117q-39 41 -97 41q-2 0 -43 -2v94q27 -3 43 -3q57 0 87 35q35 41 35 104q0 51 -25 84q-32 42 -93 42q-62 0 -136 -55l-10 105q85 36 175 36q122 0 187 -59q62 -57 62 -146q0 -146 -164 -189q67 -16 102 -38
q82 -54 82 -165q0 -115 -81 -184q-71 -62 -192 -62q-109 0 -218 57z" />
    <glyph glyph-name="middot" unicode="&#xb7;" horiz-adv-x="535" 
d="M269 672q56 0 93 -30q43 -35 43 -88q0 -54 -43 -89q-37 -30 -94 -30q-58 0 -94 30q-43 36 -43 88q0 54 43 89q37 30 95 30z" />
    <glyph glyph-name="onesuperior" unicode="&#xb9;" horiz-adv-x="706" 
d="M286 1236l-154 -65v60q0 18 -8 38l335 114q-9 -26 -9 -49v-741q0 -20 7 -47h-178q7 23 7 47v643z" />
    <glyph glyph-name="onequarter" unicode="&#xbc;" horiz-adv-x="1700" 
d="M268 1236l-154 -65v60q0 18 -8 38l335 114q-9 -26 -9 -49v-741q0 -20 7 -47h-178q7 23 7 47v643zM471 0l613 1365h110l-613 -1365h-110zM1359 223h-334v102q14 13 30 38l284 418q15 23 19 38h165q-7 -23 -7 -46v-449h50q26 0 50 8v-113q-31 4 -53 4h-47v-176q0 -24 7 -47
h-171q7 24 7 47v176zM1362 324v363l-241 -363h241z" />
    <glyph glyph-name="onehalf" unicode="&#xbd;" horiz-adv-x="1701" 
d="M278 1236l-154 -65v60q0 18 -8 38l335 114q-9 -26 -9 -49v-741q0 -20 7 -47h-178q7 23 7 47v643zM481 0l613 1365h110l-613 -1365h-110zM1075 99q331 273 331 505q0 63 -34 99q-37 40 -105 40q-73 0 -155 -52l-17 100q119 40 210 40q115 0 184 -53q81 -63 81 -160
q0 -160 -209 -379q-75 -79 -140 -127h293q44 0 68 8v-120h-515q8 22 8 43v56z" />
    <glyph glyph-name="threequarters" unicode="&#xbe;" horiz-adv-x="1700" 
d="M111 694q85 -74 165 -74q60 0 98 43t38 116q0 74 -41 117q-39 41 -97 41q-2 0 -43 -2v94q27 -3 43 -3q57 0 87 35q35 41 35 104q0 51 -25 84q-32 42 -93 42q-62 0 -136 -55l-10 105q85 36 175 36q122 0 187 -59q62 -57 62 -146q0 -146 -164 -189q67 -16 102 -38
q82 -54 82 -165q0 -115 -81 -184q-71 -62 -192 -62q-109 0 -218 57zM492 0l613 1365h110l-613 -1365h-110zM1376 223h-333v102q14 13 30 38l283 418q15 23 20 38h163q-6 -23 -6 -46v-449h50q26 0 50 8v-113q-31 4 -53 4h-47v-176q0 -24 6 -47h-170q7 24 7 47v176zM1379 324
v363l-241 -363h241z" />
    <glyph glyph-name="Eth" unicode="&#xd0;" horiz-adv-x="1345" 
d="M153 646h-160v106h160v548q0 38 -9 65h422q232 0 396 -95q150 -86 224 -237q76 -153 76 -339q0 -190 -72.5 -340.5t-210.5 -247.5q-152 -106 -355 -106h-480q9 30 9 66v580zM381 646v-529h186q180 0 290 108q78 77 119.5 199t41.5 272q0 319 -201 467q-121 89 -287 89
h-149v-500h248v-106h-248z" />
    <glyph glyph-name="multiply" unicode="&#xd7;" horiz-adv-x="1043" 
d="M522 593l-291 -291l-89 89l291 291l-291 291l89 89l291 -291l291 291l89 -89l-291 -291l291 -291l-89 -89z" />
    <glyph glyph-name="Yacute" unicode="&#xdd;" horiz-adv-x="916" 
d="M342 598l-352 712q-17 35 -32 55h265q2 -20 20 -59l278 -566l289 569q12 24 19 56h129q-15 -21 -31 -51l-357 -713v-535q0 -37 9 -66h-246q9 30 9 66v532zM403 1444l139 316h179l-215 -316h-103z" />
    <glyph glyph-name="Thorn" unicode="&#xde;" horiz-adv-x="1054" 
d="M381 345v-279q0 -30 10 -66h-247q9 31 9 66v1232q0 37 -9 67h246q-8 -24 -9 -66v-177h199q161 0 272 -64q170 -99 170 -312q0 -236 -207 -340q-121 -61 -289 -61h-145zM381 450h122q100 0 161 36q59 35 91 102q35 71 35 154q0 152 -97 227q-66 52 -171 52h-141v-571z" />
    <glyph glyph-name="eth" unicode="&#xf0;" horiz-adv-x="1145" 
d="M632 1309l-129 -148l-55 48l113 130q-82 30 -164 41l42 88q129 -22 195 -45l128 147l55 -48l-109 -126q127 -61 192 -143q165 -210 165 -666q0 -241 -68 -365q-130 -241 -424 -241q-232 0 -361 151q-131 155 -131 401q0 236 129 383q131 150 338 150q128 0 215 -61
q31 -22 74 -69q-18 142 -67 235q-46 84 -138 138zM569 977q-54 0 -106 -29.5t-82 -78.5q-81 -128 -81 -348q0 -214 82 -344q31 -49 82.5 -78t107.5 -29q57 0 108.5 29t82.5 78q82 130 82 344q0 222 -82 349q-69 107 -194 107z" />
    <glyph glyph-name="yacute" unicode="&#xfd;" horiz-adv-x="893" 
d="M364 0l-365 1007q-7 21 -26 59h243q6 -35 15 -59l250 -719l295 719q12 31 17 59h127q-19 -32 -30 -59l-524 -1267q-12 -28 -18 -59h-130q21 34 31 59zM349 1189l139 316h179l-215 -316h-103z" />
    <glyph glyph-name="thorn" unicode="&#xfe;" horiz-adv-x="1122" 
d="M343 120v-374q0 -36 8 -65h-225q8 31 8 65v1660q0 33 -8 66h222q-8 -28 -8 -66v-492q117 177 311 177q165 0 270 -125q62 -74 91 -174.5t29 -242.5q0 -280 -120 -430q-66 -82 -174 -118q-60 -20 -124 -20q-169 0 -280 139zM586 958q-74 0 -141 -54q-71 -58 -94 -169
q-14 -71 -14 -206q0 -186 30 -266q63 -169 212 -169q128 0 186 123q57 121 57 315q0 219 -60 327q-26 46 -73 72.5t-103 26.5z" />
    <glyph glyph-name="Amacron" unicode="&#x100;" horiz-adv-x="1180" 
d="M266 428l-132 -371q-9 -25 -8 -57h-129q19 30 28 57l447 1258q9 26 9 50h199q1 -21 9 -45l461 -1263q10 -24 33 -57h-267q0 27 -10 57l-131 371h-509zM301 528h436l-221 617zM245 1506v136h643v-136h-643z" />
    <glyph glyph-name="amacron" unicode="&#x101;" horiz-adv-x="1014" 
d="M668 143q-64 -76 -117 -107q-94 -55 -215 -55q-122 0 -197 72q-92 87 -92 233q0 174 131 260q76 49 169 79q52 16 174 53q113 33 132 99q8 25 8 48q0 62 -46 104q-54 50 -149 50q-105 0 -197 -56q-30 -18 -80 -57l-34 136q75 35 127 52q111 37 244 37q178 0 272 -80
q72 -61 72 -167v-633q0 -92 63 -92q25 0 70 33v-118q-83 -53 -158 -53q-94 0 -137 57q-24 32 -40 105zM661 636q-37 -21 -47 -25q-17 -8 -170 -66q-99 -37 -146.5 -95.5t-47.5 -142.5t51 -140q44 -48 123 -48q123 0 193 101q44 64 44 138v278zM173 1241v136h659v-136h-659z
" />
    <glyph glyph-name="Abreve" unicode="&#x102;" horiz-adv-x="1180" 
d="M266 428l-132 -371q-9 -25 -8 -57h-129q19 30 28 57l447 1258q9 26 9 50h199q1 -21 9 -45l461 -1263q10 -24 33 -57h-267q0 27 -10 57l-131 371h-509zM301 528h436l-221 617zM766 1741h127q-12 -78 -61 -138q-97 -120 -268 -120q-147 0 -234 102q-52 62 -67 156h121
q14 -56 49 -90q54 -54 137 -54q93 0 156 72q28 31 40 72z" />
    <glyph glyph-name="abreve" unicode="&#x103;" horiz-adv-x="1014" 
d="M668 143q-64 -76 -117 -107q-94 -55 -215 -55q-122 0 -197 72q-92 87 -92 233q0 174 131 260q76 49 169 79q52 16 174 53q113 33 132 99q8 25 8 48q0 62 -46 104q-54 50 -149 50q-105 0 -197 -56q-30 -18 -80 -57l-34 136q75 35 127 52q111 37 244 37q178 0 272 -80
q72 -61 72 -167v-633q0 -92 63 -92q25 0 70 33v-118q-83 -53 -158 -53q-94 0 -137 57q-24 32 -40 105zM661 636q-37 -21 -47 -25q-17 -8 -170 -66q-99 -37 -146.5 -95.5t-47.5 -142.5t51 -140q44 -48 123 -48q123 0 193 101q44 64 44 138v278zM701 1493h127
q-13 -90 -62 -161q-99 -140 -274 -140q-148 0 -236 119q-55 73 -70 182h121q15 -70 51 -112q57 -67 140 -67q97 0 162 90q27 37 41 89z" />
    <glyph glyph-name="Aogonek" unicode="&#x104;" horiz-adv-x="1180" 
d="M1183 0q-53 -30 -74 -51q-41 -43 -41 -104q0 -45 28 -72q25 -25 63 -25q58 0 123 44l4 -112q-80 -42 -155 -42q-79 0 -132 53q-52 52 -52 127q0 101 100 182h-131q0 27 -10 57l-131 371h-509l-132 -371q-9 -25 -8 -57h-129q19 30 28 57l447 1258q9 26 9 50h199
q1 -21 9 -45l461 -1263q10 -24 33 -57zM301 528h436l-221 617z" />
    <glyph glyph-name="aogonek" unicode="&#x105;" horiz-adv-x="1014" 
d="M1067 -208l4 -112q-80 -42 -155 -42q-79 0 -132 53q-52 52 -52 127q0 85 80 166q-55 8 -88 37q-38 37 -56 122q-64 -76 -117 -107q-94 -55 -215 -55q-122 0 -197 72q-92 87 -92 233q0 174 131 260q76 49 169 79q52 16 174 53q113 33 132 99q8 25 8 48q0 62 -46 104
q-54 50 -149 50q-105 0 -197 -56q-30 -18 -80 -57l-34 136q75 35 127 52q111 37 244 37q178 0 272 -80q72 -61 72 -167v-633q0 -91 63 -91q25 0 70 32v-118q-54 -33 -76 -50q-33 -25 -53.5 -64.5t-20.5 -79.5q0 -39 28 -67q25 -25 63 -25q58 0 123 44zM661 636
q-37 -21 -47 -25q-17 -8 -170 -66q-99 -37 -146.5 -95.5t-47.5 -142.5t51 -140q44 -48 123 -48q123 0 193 101q44 64 44 138v278z" />
    <glyph glyph-name="Cacute" unicode="&#x106;" horiz-adv-x="1151" 
d="M1102 1325v-184q-66 53 -113 79q-96 53 -213 53q-224 0 -341 -170q-112 -162 -112 -416q0 -271 128 -433q125 -158 332 -158q120 0 220 64q39 25 99 82v-180q-69 -32 -122 -49q-101 -33 -234 -33q-316 0 -485 175q-181 188 -181 537q0 164 41 284t127 212
q186 197 528 197q174 0 326 -60zM603 1444l139 316h179l-215 -316h-103z" />
    <glyph glyph-name="cacute" unicode="&#x107;" horiz-adv-x="920" 
d="M865 57q-64 -28 -97 -41q-92 -35 -205 -35q-226 0 -350 140q-132 149 -132 401q0 288 167 443q137 126 359 126q122 0 258 -46v-156q-52 41 -83 59q-75 44 -162 44q-146 0 -227 -120q-87 -127 -87 -336q0 -182 66 -305q76 -141 236 -141q99 0 189 60q27 18 68 54v-147z
M452 1189l139 316h179l-215 -316h-103z" />
    <glyph glyph-name="Ccircumflex" unicode="&#x108;" horiz-adv-x="1151" 
d="M1102 63q-83 -38 -125 -52q-98 -31 -230 -31q-317 0 -490 179q-83 85 -130 226t-47 303q0 352 192 527q89 81 223.5 125.5t291.5 44.5q152 0 315 -60v-184q-69 56 -115 82q-89 51 -208 51q-243 0 -364 -203q-90 -150 -90 -378q0 -295 138 -452q128 -145 318 -145
q118 0 201 51q49 30 120 95v-179zM281 1445l233 312h134l221 -312h-152l-137 225l-145 -225h-154z" />
    <glyph glyph-name="Cdot" unicode="&#x10a;" horiz-adv-x="1151" 
d="M1102 63q-83 -38 -125 -52q-98 -31 -230 -31q-317 0 -490 179q-83 85 -130 226t-47 303q0 352 192 527q89 81 223.5 125.5t291.5 44.5q152 0 315 -60v-184q-69 56 -115 82q-89 51 -208 51q-243 0 -364 -203q-90 -150 -90 -378q0 -295 138 -452q128 -145 318 -145
q118 0 201 51q49 30 120 95v-179zM578 1669q55 0 92 -25q35 -23 35 -70q0 -50 -37 -75q-36 -24 -92 -24q-62 0 -100 28q-31 23 -31 68t32 69q38 29 101 29z" />
    <glyph glyph-name="cdot" unicode="&#x10b;" horiz-adv-x="920" 
d="M865 57q-64 -28 -97 -41q-92 -35 -205 -35q-226 0 -350 140q-132 149 -132 401q0 288 167 443q137 126 359 126q122 0 258 -46v-156q-52 41 -83 59q-75 44 -162 44q-146 0 -227 -120q-87 -127 -87 -336q0 -182 66 -305q76 -141 236 -141q99 0 189 60q27 18 68 54v-147z
M569 1404q54 0 91 -25q36 -23 36 -70q0 -50 -37 -75q-36 -24 -92 -24q-63 0 -101 28q-31 23 -31 68t32 69q39 29 102 29z" />
    <glyph glyph-name="Ccaron" unicode="&#x10c;" horiz-adv-x="1151" 
d="M1102 1325v-184q-66 53 -113 79q-96 53 -213 53q-224 0 -341 -170q-112 -162 -112 -416q0 -271 128 -433q125 -158 332 -158q120 0 220 64q39 25 99 82v-180q-69 -32 -122 -49q-101 -33 -234 -33q-316 0 -485 175q-181 188 -181 537q0 164 41 284t127 212
q186 197 528 197q174 0 326 -60zM390 1744h156l172 -189l165 189h151l-250 -270h-135z" />
    <glyph glyph-name="ccaron" unicode="&#x10d;" horiz-adv-x="920" 
d="M865 57q-64 -28 -97 -41q-92 -35 -205 -35q-226 0 -350 140q-132 149 -132 401q0 288 167 443q137 126 359 126q122 0 258 -46v-156q-52 41 -83 59q-75 44 -162 44q-146 0 -227 -120q-87 -127 -87 -336q0 -182 66 -305q76 -141 236 -141q99 0 189 60q27 18 68 54v-147z
M846 1500l-233 -311h-135l-221 311h153l137 -225l145 225h154z" />
    <glyph glyph-name="Dcaron" unicode="&#x10e;" horiz-adv-x="1345" 
d="M144 1365h421q233 0 397 -95q150 -86 224 -237q76 -153 76 -339q0 -191 -72.5 -341t-210.5 -247q-153 -106 -355 -106h-480q9 30 9 66v1234q0 38 -9 65zM381 117h185q182 0 292 108q78 77 119.5 199t41.5 272q0 319 -202 467q-121 89 -287 89h-149v-1135zM277 1744h156
l172 -189l165 189h151l-250 -270h-135z" />
    <glyph glyph-name="dcaron" unicode="&#x10f;" horiz-adv-x="1325" 
d="M780 155q-54 -75 -97 -108q-84 -66 -214 -66q-186 0 -286 151q-102 155 -102 403q0 256 115 413q105 143 300 143q125 0 208 -61q35 -26 73 -77v453q0 36 -8 66h225q-8 -31 -8 -66v-1340q0 -34 8 -66h-214v155zM545 978q-60 0 -110.5 -34.5t-77.5 -94.5
q-56 -122 -56 -318q0 -417 237 -417q57 0 108.5 30.5t78.5 80.5q63 114 63 324q0 429 -243 429zM1211 1491l158 -63l-191 -346l-118 47z" />
    <glyph glyph-name="Dslash" unicode="&#x110;" horiz-adv-x="1345" 
d="M153 646h-160v106h160v548q0 38 -9 65h422q232 0 396 -95q150 -86 224 -237q76 -153 76 -339q0 -190 -72.5 -340.5t-210.5 -247.5q-152 -106 -355 -106h-480q9 30 9 66v580zM381 646v-529h186q180 0 290 108q78 77 119.5 199t41.5 272q0 319 -201 467q-121 89 -287 89
h-149v-500h248v-106h-248z" />
    <glyph glyph-name="dmacron" unicode="&#x111;" horiz-adv-x="1120" 
d="M777 1218h-263v88h263v102q0 36 -8 64h225q-8 -29 -8 -64v-102h134v-88h-134v-1152q0 -34 8 -66h-214v155q-54 -75 -97 -108q-84 -66 -213 -66q-187 0 -287 151q-102 155 -102 403q0 256 115 413q105 143 300 143q125 0 208 -61q35 -26 73 -77v265zM545 978
q-60 0 -110.5 -34.5t-77.5 -94.5q-56 -122 -56 -318q0 -417 237 -417q58 0 109 30t78 81q63 114 63 324q0 429 -243 429z" />
    <glyph glyph-name="Emacron" unicode="&#x112;" horiz-adv-x="950" 
d="M144 1365h708v-111q-31 10 -64 10h-407v-520h396q43 0 75 9v-111q-27 6 -73 6h-398v-538h395q33 0 76 10v-120h-707q8 30 8 65v1234q0 41 -9 66zM171 1506v136h643v-136h-643z" />
    <glyph glyph-name="emacron" unicode="&#x113;" horiz-adv-x="1105" 
d="M987 71q-78 -39 -135 -57q-102 -33 -231 -33q-272 0 -414 160q-126 141 -126 384q0 275 144 426q133 140 353 140q275 0 394 -228q60 -116 66 -292h-739q0 -175 39 -280q76 -209 311 -209q162 0 307 124zM305 665h510q-8 91 -26 148q-27 85 -92 137q-55 43 -130 43
q-97 0 -168 -77q-77 -84 -94 -251zM238 1241v136h659v-136h-659z" />
    <glyph glyph-name="Ebreve" unicode="&#x114;" horiz-adv-x="950" 
d="M144 1365h708v-111q-31 10 -64 10h-407v-520h396q43 0 75 9v-111q-27 6 -73 6h-398v-538h395q33 0 76 10v-120h-707q8 30 8 65v1234q0 41 -9 66zM693 1741h127q-12 -78 -61 -138q-97 -120 -268 -120q-148 0 -234 102q-52 62 -67 156h122q13 -56 48 -90q55 -54 137 -54
q93 0 156 72q28 31 40 72z" />
    <glyph glyph-name="ebreve" unicode="&#x115;" horiz-adv-x="1105" 
d="M987 71q-78 -39 -135 -57q-102 -33 -231 -33q-272 0 -414 160q-126 141 -126 384q0 275 144 426q133 140 353 140q275 0 394 -228q60 -116 66 -292h-739q0 -175 39 -280q76 -209 311 -209q162 0 307 124zM305 665h510q-8 91 -26 148q-27 85 -92 137q-55 43 -130 43
q-97 0 -168 -77q-77 -84 -94 -251zM763 1493h127q-12 -90 -62 -161q-99 -140 -274 -140q-148 0 -237 119q-54 73 -69 182h121q15 -70 51 -112q57 -67 140 -67q97 0 162 90q27 37 41 89z" />
    <glyph glyph-name="Edot" unicode="&#x116;" horiz-adv-x="950" 
d="M144 1365h708v-111q-31 10 -64 10h-407v-520h396q43 0 75 9v-111q-27 6 -73 6h-398v-538h395q33 0 76 10v-120h-707q8 30 8 65v1234q0 41 -9 66zM505 1669q55 0 92 -25q35 -23 35 -70q0 -50 -37 -75q-36 -24 -93 -24q-62 0 -100 28q-31 23 -31 68t32 69q39 29 102 29z
" />
    <glyph glyph-name="edot" unicode="&#x117;" horiz-adv-x="1105" 
d="M987 71q-78 -39 -135 -57q-102 -33 -231 -33q-272 0 -414 160q-126 141 -126 384q0 275 144 426q133 140 353 140q275 0 394 -228q60 -116 66 -292h-739q0 -175 39 -280q76 -209 311 -209q162 0 307 124zM305 665h510q-8 91 -26 148q-27 85 -92 137q-55 43 -130 43
q-97 0 -168 -77q-77 -84 -94 -251zM577 1404q55 0 92 -25q35 -23 35 -70q0 -50 -37 -75q-36 -24 -93 -24q-62 0 -100 28q-31 23 -31 68t32 69q39 29 102 29z" />
    <glyph glyph-name="Eogonek" unicode="&#x118;" horiz-adv-x="950" 
d="M852 0q-81 -89 -81 -157q0 -43 28 -70q25 -25 63 -25q57 0 123 44l3 -112q-79 -42 -155 -42q-78 0 -131 53q-52 52 -52 126q0 101 98 183h-603q8 30 8 65v1234q0 41 -9 66h708v-111q-31 10 -64 10h-407v-520h396q43 0 75 9v-111q-27 6 -73 6h-398v-538h395q33 0 76 10
v-120z" />
    <glyph glyph-name="eogonek" unicode="&#x119;" horiz-adv-x="1105" 
d="M928 -208l4 -112q-80 -42 -155 -42q-78 0 -131 53q-52 52 -52 127q0 82 78 165q-28 -2 -49 -2q-275 0 -416 160q-126 141 -126 384q0 275 144 426q133 140 353 140q275 0 394 -228q60 -116 66 -292h-739q0 -175 39 -280q76 -209 311 -209q162 0 307 124l31 -135
q-71 -35 -149 -61q-60 -21 -93 -67q-30 -43 -30 -95q0 -49 27 -75q26 -25 64 -25q57 0 122 44zM305 665h510q-8 91 -26 148q-27 85 -92 137q-55 43 -130 43q-97 0 -168 -77q-77 -84 -94 -251z" />
    <glyph glyph-name="Ecaron" unicode="&#x11a;" horiz-adv-x="950" 
d="M144 1365h708v-111q-31 10 -64 10h-407v-520h396q43 0 75 9v-111q-27 6 -73 6h-398v-538h395q33 0 76 10v-120h-707q8 30 8 65v1234q0 41 -9 66zM170 1744h156l172 -189l165 189h151l-250 -270h-135z" />
    <glyph glyph-name="ecaron" unicode="&#x11b;" horiz-adv-x="1105" 
d="M987 71q-78 -39 -135 -57q-102 -33 -231 -33q-272 0 -414 160q-126 141 -126 384q0 275 144 426q133 140 353 140q275 0 394 -228q60 -116 66 -292h-739q0 -175 39 -280q76 -209 311 -209q162 0 307 124zM305 665h510q-8 91 -26 148q-27 85 -92 137q-55 43 -130 43
q-97 0 -168 -77q-77 -84 -94 -251zM868 1500l-233 -311h-135l-221 311h153l137 -225l145 225h154z" />
    <glyph glyph-name="Gcircumflex" unicode="&#x11c;" horiz-adv-x="1324" 
d="M1213 74q-124 -43 -207 -63q-121 -31 -257 -31q-333 0 -502 197q-78 92 -121.5 222t-43.5 272q0 181 62.5 332t174.5 241q175 141 464 141q123 0 234 -28q48 -12 143 -46v-169q-75 49 -127 75q-108 53 -240 53q-236 0 -363 -175q-50 -68 -78 -174.5t-28 -226.5
q0 -183 51.5 -320.5t144.5 -203.5q109 -78 254 -78q70 0 123 18q29 9 83 38v534q0 37 -8 66h8h220h8q-8 -31 -8 -66v-526q0 -46 13 -82zM367 1445l234 312h134l221 -312h-152l-137 225l-145 -225h-155z" />
    <glyph glyph-name="gcircumflex" unicode="&#x11d;" horiz-adv-x="1125" 
d="M139 -100l-52 153l229 167q-89 50 -135 103q-94 109 -94 302q0 116 40 211.5t113 154.5q120 98 312 98q46 0 109 -3q81 63 94 107q8 23 11 72h199q-9 -70 -42 -113q-27 -37 -120 -96q111 -66 161 -135q83 -114 83 -283q0 -241 -151 -362q-112 -90 -280 -101
q-65 -5 -85 -7q-30 -3 -54 -18l-188 -111q258 59 382 59q165 0 282 -50q131 -55 131 -172q0 -115 -139 -173q-111 -47 -295 -47q-230 0 -523 92v39q169 -45 276 -55q70 -7 136 -7q117 0 195 32q86 35 86 98q0 68 -107 100q-85 25 -191 25q-84 0 -170 -12q-81 -11 -213 -68z
M560 982q-134 0 -200 -111q-49 -83 -49 -238q0 -356 251 -356q257 0 257 358q0 172 -73 266q-63 81 -186 81zM298 1272l210 281h121l199 -281h-138l-123 203l-130 -203h-139z" />
    <glyph glyph-name="Gbreve" unicode="&#x11e;" horiz-adv-x="1326" 
d="M1162 1311v-169q-187 128 -372 128q-200 0 -323 -136q-73 -81 -106.5 -191t-33.5 -268q0 -307 138 -458q116 -126 305 -126q111 0 211 57v533q0 37 -8 66h238q-8 -31 -8 -66v-525q1 -46 13 -82q-102 -34 -156 -50q-152 -44 -314 -44q-157 0 -271 41t-201 130
q-191 193 -191 527q0 357 222 550q179 157 473 157q181 0 384 -74zM931 1741h127q-12 -78 -61 -138q-97 -120 -268 -120q-147 0 -234 102q-52 62 -67 156h121q14 -56 49 -90q54 -54 137 -54q93 0 156 72q28 31 40 72z" />
    <glyph glyph-name="gbreve" unicode="&#x11f;" horiz-adv-x="1123" 
d="M140 -101l-52 154l229 167q-94 53 -143 111q-88 103 -88 281q0 235 134 361q125 117 329 117q38 0 113 -4q46 19 73 65t32 114h199q-10 -85 -64 -138q-34 -32 -101 -73q122 -59 184 -166.5t62 -259.5q0 -198 -114 -319q-89 -96 -247 -124q-31 -5 -132 -15
q-62 -6 -108 -33l-194 -120q277 66 419 66q163 0 284 -50q62 -25 96.5 -70.5t34.5 -100.5q0 -57 -37 -103t-103 -72q-119 -47 -296 -47q-217 0 -522 92v40q235 -63 414 -63q124 0 201 35q78 35 78 97q0 31 -26.5 56.5t-71.5 38.5q-91 27 -206 27q-169 0 -377 -64zM563 982
q-128 0 -191 -99q-60 -95 -60 -251q0 -164 66 -261q63 -93 187 -93q130 0 192 97q64 103 64 259q0 162 -69 259q-64 89 -189 89zM710 1505h127q-13 -90 -62 -161q-99 -140 -274 -140q-148 0 -236 119q-55 73 -70 182h121q15 -70 51 -112q57 -67 140 -67q97 0 162 90
q27 37 41 89z" />
    <glyph glyph-name="Gdot" unicode="&#x120;" horiz-adv-x="1324" 
d="M1213 74q-124 -43 -207 -63q-121 -31 -257 -31q-333 0 -502 197q-78 92 -121.5 222t-43.5 272q0 181 62.5 332t174.5 241q175 141 464 141q123 0 234 -28q48 -12 143 -46v-169q-75 49 -127 75q-108 53 -240 53q-236 0 -363 -175q-50 -68 -78 -174.5t-28 -226.5
q0 -183 51.5 -320.5t144.5 -203.5q109 -78 254 -78q70 0 123 18q29 9 83 38v534q0 37 -8 66h8h220h8q-8 -31 -8 -66v-526q0 -46 13 -82zM665 1669q55 0 92 -25q35 -23 35 -70q0 -50 -37 -75q-35 -24 -92 -24q-62 0 -100 28q-31 23 -31 68t32 69q38 29 101 29z" />
    <glyph glyph-name="gdot" unicode="&#x121;" horiz-adv-x="1125" 
d="M139 -100l-52 153l229 167q-89 50 -135 103q-94 109 -94 302q0 116 40 211.5t113 154.5q120 98 312 98q46 0 109 -3q81 63 94 107q8 23 11 72h199q-9 -70 -42 -113q-27 -37 -120 -96q111 -66 161 -135q83 -114 83 -283q0 -241 -151 -362q-112 -90 -280 -101
q-65 -5 -85 -7q-30 -3 -54 -18l-188 -111q258 59 382 59q165 0 282 -50q131 -55 131 -172q0 -115 -139 -173q-111 -47 -295 -47q-230 0 -523 92v39q169 -45 276 -55q70 -7 136 -7q117 0 195 32q86 35 86 98q0 68 -107 100q-85 25 -191 25q-84 0 -170 -12q-81 -11 -213 -68z
M560 982q-134 0 -200 -111q-49 -83 -49 -238q0 -356 251 -356q257 0 257 358q0 172 -73 266q-63 81 -186 81zM566 1384q55 0 92 -25q35 -23 35 -70q0 -50 -37 -75q-36 -24 -92 -24q-62 0 -100 28q-31 23 -31 68q0 44 32 69q38 29 101 29z" />
    <glyph glyph-name="Gcedilla" unicode="&#x122;" horiz-adv-x="1326" 
d="M1162 1311v-169q-187 128 -372 128q-200 0 -323 -136q-73 -81 -106.5 -191t-33.5 -268q0 -307 138 -458q116 -126 305 -126q111 0 211 57v533q0 37 -8 66h238q-8 -31 -8 -66v-525q1 -46 13 -82q-102 -34 -156 -50q-152 -44 -314 -44q-157 0 -271 41t-201 130
q-191 193 -191 527q0 357 222 550q179 157 473 157q181 0 384 -74zM567 -407l87 309h162l-148 -309h-101z" />
    <glyph glyph-name="gcedilla" unicode="&#x123;" horiz-adv-x="1123" 
d="M140 -101l-52 154l229 167q-94 53 -143 111q-88 103 -88 281q0 235 134 361q125 117 329 117q38 0 113 -4q46 19 73 65t32 114h199q-10 -85 -64 -138q-34 -32 -101 -73q122 -59 184 -166.5t62 -259.5q0 -198 -114 -319q-89 -96 -247 -124q-31 -5 -132 -15
q-62 -6 -108 -33l-194 -120q277 66 419 66q163 0 284 -50q62 -25 96.5 -70.5t34.5 -100.5q0 -57 -37 -103t-103 -72q-119 -47 -296 -47q-217 0 -522 92v40q235 -63 414 -63q124 0 201 35q78 35 78 97q0 31 -26.5 56.5t-71.5 38.5q-91 27 -206 27q-169 0 -377 -64zM563 982
q-128 0 -191 -99q-60 -95 -60 -251q0 -164 66 -261q63 -93 187 -93q130 0 192 97q64 103 64 259q0 162 -69 259q-64 89 -189 89zM564 1189l-158 63l190 346l119 -47z" />
    <glyph glyph-name="Hcircumflex" unicode="&#x124;" horiz-adv-x="1360" 
d="M383 658v-592q0 -39 8 -66h-8h-231h-8q8 29 8 66v1234q0 35 -8 65h8h231h8q-8 -31 -8 -66v-543h597v543q0 33 -8 66h8h227h8q-8 -29 -8 -65v-1234q0 -37 8 -66h-8h-227h-8q8 28 8 66v592h-597zM385 1445l234 312h134l221 -312h-152l-137 225l-145 -225h-155z" />
    <glyph glyph-name="Hbar" unicode="&#x126;" horiz-adv-x="1388" 
d="M1262 1172h126v-134h-126v-1038h-232v616h-672v-616h-231v1038h-128v134h128v193h231v-193h672v193h232v-193zM358 1038v-245h672v245h-672z" />
    <glyph glyph-name="hbar" unicode="&#x127;" horiz-adv-x="1146" 
d="M336 1223h251v-129h-251v-300q42 88 92 131q98 87 238 87q190 0 291 -135q45 -61 59 -141q7 -45 7 -115v-621h-212v581q0 123 -47 180q-65 80 -176 80q-131 0 -203 -112q-49 -77 -49 -219v-510h-212v1094h-146v129h146v142h212v-142z" />
    <glyph glyph-name="Imacron" unicode="&#x12a;" horiz-adv-x="558" 
d="M156 1365h246q-8 -24 -9 -65v-1234q1 -42 9 -66h-246q9 30 9 66v1234q0 35 -9 65zM29 1506v136h499v-136h-499z" />
    <glyph glyph-name="imacron" unicode="&#x12b;" horiz-adv-x="501" 
d="M136 1066h225q-8 -31 -8 -66v-934q0 -34 8 -66h-225q8 30 8 66v934q0 37 -8 66zM10 1241v136h480v-136h-480z" />
    <glyph glyph-name="ibreve" unicode="&#x12d;" horiz-adv-x="472" 
d="M129 118v883q0 37 -8 65h8h212h8q-8 -30 -8 -65v-935q0 -34 8 -66h-8h-212h-8q8 31 8 66v52zM430 1469h127q-15 -91 -63 -160q-99 -141 -273 -141q-147 0 -236 119q-54 71 -70 182h121q17 -72 51 -112q56 -67 140 -67q96 0 162 90q28 37 41 89z" />
    <glyph glyph-name="Iogonek" unicode="&#x12e;" horiz-adv-x="558" 
d="M379 0q-102 -68 -102 -154q0 -47 27 -73q26 -25 64 -25q57 0 123 44l3 -112q-79 -42 -154 -42q-79 0 -132 53q-52 52 -52 127q0 102 102 182h-125q9 30 9 66v1234q0 35 -9 65h246q-8 -24 -9 -65v-1234q1 -42 9 -66z" />
    <glyph glyph-name="iogonek" unicode="&#x12f;" horiz-adv-x="501" 
d="M340 0q-89 -74 -89 -158q0 -42 28 -69q24 -25 62 -25q58 0 123 44l4 -112q-80 -42 -155 -42q-78 0 -131 53q-52 52 -52 127q0 95 98 182h-113q8 30 8 66v934q0 37 -8 66h225q-8 -31 -8 -66v-934q0 -34 8 -66zM233 1354q56 0 93 -25q35 -23 35 -70q0 -49 -37 -74
q-36 -25 -92 -25q-64 0 -101 28q-31 24 -31 68t32 69q38 29 101 29z" />
    <glyph glyph-name="Idot" unicode="&#x130;" horiz-adv-x="558" 
d="M145 1365h246q-8 -24 -9 -65v-1234q1 -42 9 -66h-246q9 30 9 66v1234q0 35 -9 65zM272 1669q55 0 92 -25q35 -23 35 -70q0 -50 -37 -75q-36 -24 -93 -24q-62 0 -100 28q-31 23 -31 68t32 69q39 29 102 29z" />
    <glyph glyph-name="IJ" unicode="&#x132;" horiz-adv-x="1095" 
d="M156 1365h246q-8 -24 -9 -65v-1234q1 -42 9 -66h-246q9 30 9 66v1234q0 35 -9 65zM442 -286l67 138q71 -62 123 -62q83 0 83 128v1382q0 36 -9 65h246q-9 -26 -9 -66v-1372q0 -120 -39 -175q-32 -47 -96 -73.5t-142 -26.5q-113 0 -224 62z" />
    <glyph glyph-name="ij" unicode="&#x133;" horiz-adv-x="1004" 
d="M254 1354q56 0 93 -25q35 -23 35 -70q0 -49 -37 -74q-36 -25 -92 -25q-64 0 -101 28q-31 24 -31 68t32 69q38 29 101 29zM136 1066h225q-8 -31 -8 -66v-934q0 -34 8 -66h-225q8 30 8 66v934q0 37 -8 66zM760 1354q56 0 93 -25q36 -23 36 -70q0 -49 -37 -74
q-36 -25 -92 -25q-65 0 -102 28q-31 24 -31 68t32 69q38 29 101 29zM405 -271l50 118q28 -28 43 -40q41 -36 82 -36q29 0 49 18q22 21 22 62l-1 71v1078q0 36 -8 66h225q-8 -31 -8 -66v-1071q0 -113 -35 -170q-60 -98 -201 -98q-100 0 -218 68z" />
    <glyph glyph-name="Kcedilla" unicode="&#x136;" horiz-adv-x="1095" 
d="M381 647v-581q0 -36 9 -66h-246q9 30 9 66v1233q0 37 -9 66h246q-9 -30 -9 -65v-540l438 560q12 16 24 45h169q-26 -20 -49 -49l-418 -533l535 -727q31 -41 50 -56h-293q-9 33 -23 52zM411 -407l87 309h162l-148 -309h-101z" />
    <glyph glyph-name="kcedilla" unicode="&#x137;" horiz-adv-x="980" 
d="M343 549v-483q0 -34 8 -66h-225q8 30 8 66v1340q0 36 -8 66h225q-8 -30 -8 -66v-775l349 382q19 22 37 53h169q-20 -15 -60 -57l-325 -339l489 -616q26 -33 52 -54h-271q-21 32 -41 61zM365 -408l87 308h162l-148 -308h-101z" />
    <glyph glyph-name="kgreenlandic" unicode="&#x138;" horiz-adv-x="1053" 
d="M1025 986l-410 -394l459 -592h-253l-346 453l-140 -130v-323h-212v986h212v-441l446 441h244z" />
    <glyph glyph-name="Lacute" unicode="&#x139;" horiz-adv-x="854" 
d="M837 0h-693q9 29 9 64v1235q0 36 -9 66h246q-9 -30 -9 -66v-1189h387q44 1 69 9v-119zM222 1444l139 316h179l-215 -316h-103z" />
    <glyph glyph-name="lacute" unicode="&#x13a;" horiz-adv-x="478" 
d="M351 1472q-8 -29 -8 -66v-1340q0 -34 8 -66h-225q8 31 8 66v1340q0 36 -8 66h225zM171 1545l139 316h179l-215 -316h-103z" />
    <glyph glyph-name="Lcedilla" unicode="&#x13b;" horiz-adv-x="854" 
d="M837 0h-693q9 29 9 64v1235q0 36 -9 66h246q-9 -30 -9 -66v-1189h387q44 1 69 9v-119zM319 -407l87 309h162l-148 -309h-101z" />
    <glyph glyph-name="lcedilla" unicode="&#x13c;" horiz-adv-x="478" 
d="M345 1472q-8 -29 -8 -66v-1340q0 -34 8 -66h-225q8 31 8 66v1340q0 36 -8 66h225zM81 -408l87 308h162l-148 -308h-101z" />
    <glyph glyph-name="Lcaron" unicode="&#x13d;" horiz-adv-x="862" 
d="M837 0h-693q9 29 9 64v1235q0 36 -9 66h246q-9 -30 -9 -66v-1189h387q44 1 69 9v-119zM674 1392l158 -62l-191 -346l-118 47z" />
    <glyph glyph-name="lcaron" unicode="&#x13e;" horiz-adv-x="682" 
d="M351 1472q-8 -29 -8 -66v-1340q0 -34 8 -66h-225q8 31 8 66v1340q0 36 -8 66h225zM568 1491l158 -63l-191 -346l-118 47z" />
    <glyph glyph-name="Ldot" unicode="&#x13f;" horiz-adv-x="855" 
d="M837 0h-693q9 29 9 64v1235q0 36 -9 66h246q-9 -30 -9 -66v-1189h387q44 1 69 9v-119zM647 667q56 0 93 -30q43 -35 43 -88q0 -54 -43 -89q-37 -30 -94 -30q-58 0 -94 30q-43 36 -43 88q0 54 43 89q37 30 95 30z" />
    <glyph glyph-name="ldot" unicode="&#x140;" horiz-adv-x="991" 
d="M351 1472q-8 -29 -8 -66v-1340q0 -34 8 -66h-225q8 31 8 66v1340q0 36 -8 66h225zM736 667q56 0 93 -30q43 -35 43 -88q0 -54 -43 -89q-37 -30 -94 -30q-58 0 -94 30q-43 36 -43 88q0 54 43 89q37 30 95 30z" />
    <glyph glyph-name="Lslash" unicode="&#x141;" horiz-adv-x="853" 
d="M152 564l-115 -92l-63 86l178 139v602q0 37 -9 66h246q-9 -30 -9 -66v-452l232 185l64 -85l-296 -232v-605h388q44 1 69 9v-119h-694q9 29 9 64v500z" />
    <glyph glyph-name="lslash" unicode="&#x142;" horiz-adv-x="502" 
d="M355 925l115 91l60 -81l-175 -136v-733q0 -35 8 -66h-225q8 31 8 66v603l-115 -92l-59 82l174 135v612q0 37 -8 66h225q-8 -29 -8 -66v-481z" />
    <glyph glyph-name="Nacute" unicode="&#x143;" horiz-adv-x="1379" 
d="M252 1113v-1047q0 -37 9 -66h-122q9 30 9 66v1233q0 38 -9 66h217q5 -20 24 -47l746 -1043v1024q0 35 -9 66h122q-8 -23 -9 -65v-1239q1 -40 10 -61h-199q-6 17 -30 51zM609 1444l139 316h179l-215 -316h-103z" />
    <glyph glyph-name="nacute" unicode="&#x144;" horiz-adv-x="1143" 
d="M128 1066h213v-149q48 75 97 110q92 64 233 64q182 0 276 -111q60 -71 60 -198v-716q0 -33 8 -66h-225q8 25 8 66v685q0 94 -60 146q-51 45 -143 45q-123 0 -185 -68q-65 -72 -65 -185v-623q0 -35 8 -66h-225q8 29 8 66v935q0 34 -8 65zM503 1189l139 316h179l-215 -316
h-103z" />
    <glyph glyph-name="Ncedilla" unicode="&#x145;" horiz-adv-x="1379" 
d="M252 1113v-1047q0 -37 9 -66h-122q9 30 9 66v1233q0 38 -9 66h217q5 -20 24 -47l746 -1043v1024q0 35 -9 66h122q-8 -23 -9 -65v-1239q1 -40 10 -61h-199q-6 17 -30 51zM549 -407l87 309h162l-148 -309h-101z" />
    <glyph glyph-name="ncedilla" unicode="&#x146;" horiz-adv-x="1143" 
d="M128 1066h213v-149q48 75 97 110q92 64 233 64q182 0 276 -111q60 -71 60 -198v-716q0 -33 8 -66h-225q8 25 8 66v685q0 94 -60 146q-51 45 -143 45q-123 0 -185 -68q-65 -72 -65 -185v-623q0 -35 8 -66h-225q8 29 8 66v935q0 34 -8 65zM429 -408l87 308h162l-148 -308
h-101z" />
    <glyph glyph-name="Ncaron" unicode="&#x147;" horiz-adv-x="1379" 
d="M252 1113v-1047q0 -37 9 -66h-122q9 30 9 66v1233q0 38 -9 66h217q5 -20 24 -47l746 -1043v1024q0 35 -9 66h122q-8 -23 -9 -65v-1239q1 -40 10 -61h-199q-6 17 -30 51zM387 1744h156l172 -189l165 189h151l-250 -270h-135z" />
    <glyph glyph-name="ncaron" unicode="&#x148;" horiz-adv-x="1143" 
d="M128 1066h213v-149q48 75 97 110q92 64 233 64q182 0 276 -111q60 -71 60 -198v-716q0 -33 8 -66h-225q8 25 8 66v685q0 94 -60 146q-51 45 -143 45q-123 0 -185 -68q-65 -72 -65 -185v-623q0 -35 8 -66h-225q8 29 8 66v935q0 34 -8 65zM903 1500l-233 -311h-135
l-221 311h153l137 -225l145 225h154z" />
    <glyph glyph-name="napostrophe" unicode="&#x149;" horiz-adv-x="1655" 
d="M221 1392l184 -73l-220 -402l-139 56zM648 84v917q0 34 -8 65h8h207v-149q49 82 109 118q95 56 218 56q181 0 277 -113q60 -71 60 -196v-716q0 -34 8 -66h-8h-211h-8q8 25 8 66v685q0 84 -46 133q-53 57 -157 57q-130 0 -191 -80q-55 -71 -55 -172v-623q0 -36 8 -66h-8
h-211h-8q8 30 8 66v18z" />
    <glyph glyph-name="Eng" unicode="&#x14a;" horiz-adv-x="1337" 
d="M128 1350h218v-259q53 115 105 168q121 125 322 125q211 0 336 -137q68 -75 89 -181q12 -60 12 -165v-1096q0 -109 -62 -146q-48 -25 -151 -24h-193v131h20q107 2 133 48q16 29 20 88q2 27 2 114v833q0 114 -27 178q-32 75 -104 117q-70 40 -156 40q-120 0 -207 -74
q-72 -61 -101 -157q-25 -82 -25 -213v-740h-231v1350z" />
    <glyph glyph-name="eng" unicode="&#x14b;" horiz-adv-x="1152" 
d="M123 981h197v-191q103 222 347 222q182 0 283 -117q56 -65 69 -151q9 -58 9 -130v-797q0 -74 -22 -107q-35 -50 -109 -55q-30 -2 -73 -2h-176v102h19q76 1 104 17q43 27 44 104v696q0 78 -9 112q-20 75 -83 115q-56 35 -129 35q-102 0 -174 -62q-89 -78 -89 -269v-503
h-208v981z" />
    <glyph glyph-name="Omacron" unicode="&#x14c;" horiz-adv-x="1512" 
d="M765 1385q294 0 470 -166q194 -184 194 -535q0 -346 -185 -530q-175 -174 -490 -174q-331 0 -499 186q-172 190 -172 517q0 347 188 531q176 171 494 171zM749 1279q-218 0 -325 -170q-97 -155 -97 -425q0 -271 97 -427q106 -171 334 -171q217 0 328 170q100 153 100 420
q0 603 -437 603zM435 1506v136h643v-136h-643z" />
    <glyph glyph-name="omacron" unicode="&#x14d;" horiz-adv-x="1145" 
d="M579 1091q228 0 362 -160q124 -148 124 -397q0 -261 -142 -412q-132 -141 -350 -141q-232 0 -360 154q-132 158 -132 409q0 243 130 394q131 153 368 153zM570 1002q-54 0 -106 -30.5t-82 -80.5q-81 -131 -81 -357q0 -221 82 -354q31 -50 82.5 -80t107.5 -30t107.5 30
t82.5 80q82 133 82 354q0 228 -82 359q-32 51 -83.5 80t-109.5 29zM243 1241v136h659v-136h-659z" />
    <glyph glyph-name="Odblacute" unicode="&#x150;" horiz-adv-x="1512" 
d="M765 1385q294 0 470 -166q194 -184 194 -535q0 -346 -185 -530q-175 -174 -490 -174q-331 0 -499 186q-172 190 -172 517q0 347 188 531q176 171 494 171zM749 1279q-218 0 -325 -170q-97 -155 -97 -425q0 -271 97 -427q106 -171 334 -171q217 0 328 170q100 153 100 420
q0 603 -437 603zM527 1468l116 265h166l-191 -265h-91zM837 1468l116 265h166l-191 -265h-91z" />
    <glyph glyph-name="odblacute" unicode="&#x151;" horiz-adv-x="1145" 
d="M579 1091q228 0 362 -160q124 -148 124 -397q0 -261 -142 -412q-132 -141 -350 -141q-232 0 -360 154q-132 158 -132 409q0 243 130 394q131 153 368 153zM570 1002q-54 0 -106 -30.5t-82 -80.5q-81 -131 -81 -357q0 -221 82 -354q31 -50 82.5 -80t107.5 -30t107.5 30
t82.5 80q82 133 82 354q0 228 -82 359q-32 51 -83.5 80t-109.5 29zM336 1204l116 264h166l-191 -264h-91zM646 1204l116 264h166l-191 -264h-91z" />
    <glyph glyph-name="Racute" unicode="&#x154;" horiz-adv-x="1104" 
d="M382 633v-567q0 -35 9 -66h-247q9 26 9 66v1234q0 34 -9 65h415q142 0 249 -59q86 -48 133 -129t47 -181q0 -229 -216 -312q-59 -22 -152 -40l448 -590q28 -36 55 -54h-298q-10 31 -29 59zM381 711h106q93 0 160 47q109 78 109 228q0 139 -92 221q-67 59 -188 59h-95
v-555zM415 1444l139 316h179l-215 -316h-103z" />
    <glyph glyph-name="racute" unicode="&#x155;" horiz-adv-x="654" 
d="M128 1066h214v-136q29 87 97 123q67 33 170 38v-165q-26 2 -38 2q-106 0 -167 -63q-59 -60 -59 -188v-611q0 -36 8 -66h-225q8 32 8 66v934q0 36 -8 66zM272 1189l139 316h179l-215 -316h-103z" />
    <glyph glyph-name="Rcedilla" unicode="&#x156;" horiz-adv-x="1104" 
d="M382 633v-567q0 -35 9 -66h-247q9 26 9 66v1234q0 34 -9 65h415q142 0 249 -59q86 -48 133 -129t47 -181q0 -229 -216 -312q-59 -22 -152 -40l448 -590q28 -36 55 -54h-298q-10 31 -29 59zM381 711h106q93 0 160 47q109 78 109 228q0 139 -92 221q-67 59 -188 59h-95
v-555zM444 -407l87 309h162l-148 -309h-101z" />
    <glyph glyph-name="rcedilla" unicode="&#x157;" horiz-adv-x="654" 
d="M122 1066h214v-136q29 87 97 123q67 33 170 38v-165q-26 2 -38 2q-106 0 -167 -63q-59 -60 -59 -188v-611q0 -36 8 -66h-225q8 32 8 66v934q0 36 -8 66zM83 -408l87 308h162l-148 -308h-101z" />
    <glyph glyph-name="Rcaron" unicode="&#x158;" horiz-adv-x="1104" 
d="M382 633v-567q0 -35 9 -66h-247q9 26 9 66v1234q0 34 -9 65h415q142 0 249 -59q86 -48 133 -129t47 -181q0 -229 -216 -312q-59 -22 -152 -40l448 -590q28 -36 55 -54h-298q-10 31 -29 59zM381 711h106q93 0 160 47q109 78 109 228q0 139 -92 221q-67 59 -188 59h-95
v-555zM201 1744h156l172 -189l165 189h151l-250 -270h-135z" />
    <glyph glyph-name="rcaron" unicode="&#x159;" horiz-adv-x="654" 
d="M128 1066h214v-136q29 87 97 123q67 33 170 38v-165q-26 2 -38 2q-106 0 -167 -63q-59 -60 -59 -188v-611q0 -36 8 -66h-225q8 32 8 66v934q0 36 -8 66zM640 1500l-233 -311h-135l-221 311h153l137 -225l145 225h154z" />
    <glyph glyph-name="Sacute" unicode="&#x15a;" horiz-adv-x="959" 
d="M56 85l46 162q55 -47 91 -72q108 -75 234 -75q125 0 197 74q64 66 64 162q0 112 -91 181q-42 32 -207 110q-171 81 -241 161q-83 94 -83 220q0 90 41.5 168t116.5 130q114 79 295 79q154 0 318 -73l-43 -145q-158 109 -289 109q-104 0 -169 -66q-55 -57 -55 -137
q0 -95 81 -158q52 -41 202 -110q189 -86 256 -168q84 -104 84 -241q0 -93 -40.5 -178.5t-113.5 -143.5q-117 -94 -316 -94q-157 0 -299 64q-32 15 -79 41zM384 1444l139 316h179l-215 -316h-103z" />
    <glyph glyph-name="sacute" unicode="&#x15b;" horiz-adv-x="852" 
d="M49 72l36 145q57 -47 96 -71q102 -62 214 -62q98 0 153 56q51 53 51 122q0 76 -71 124q-41 29 -188 87q-159 63 -213 141q-50 73 -50 161q0 168 143 255q100 61 235 61q154 0 320 -71l-35 -132q-142 102 -265 102q-83 0 -137 -45q-58 -47 -58 -119q0 -65 54 -105
q37 -28 172 -79q157 -61 225 -127q71 -71 71 -191q0 -169 -127 -264q-105 -79 -283 -79q-173 0 -343 91zM353 1189l139 316h179l-215 -316h-103z" />
    <glyph glyph-name="Scircumflex" unicode="&#x15c;" horiz-adv-x="958" 
d="M56 85l46 161q79 -68 138 -102q80 -46 187 -46q125 0 197 75q64 66 64 162q0 112 -91 181q-42 33 -207 111q-170 81 -240 161q-83 93 -83 220q0 90 41.5 168t116.5 130q114 79 294 79q100 0 184 -23q45 -13 133 -50l-42 -144q-80 50 -141 78q-65 29 -145 29
q-108 0 -173 -66q-55 -57 -55 -137q0 -95 81 -158q52 -41 202 -110q189 -86 255 -168q85 -104 85 -240q0 -94 -40.5 -179t-113.5 -143q-116 -94 -319 -94q-118 0 -221 35q-53 18 -153 70zM185 1445l233 312h135l221 -312h-153l-137 225l-145 -225h-154z" />
    <glyph glyph-name="scircumflex" unicode="&#x15d;" horiz-adv-x="852" 
d="M49 72l36 145q57 -47 96 -71q102 -62 214 -62q98 0 153 56q51 53 51 122q0 76 -71 124q-41 29 -188 87q-159 63 -213 141q-50 73 -50 161q0 168 143 255q100 61 235 61q154 0 320 -71l-35 -132q-142 102 -265 102q-83 0 -137 -45q-58 -47 -58 -119q0 -65 54 -105
q37 -28 172 -79q157 -61 225 -127q71 -71 71 -191q0 -169 -127 -264q-105 -79 -283 -79q-173 0 -343 91zM131 1189l234 311h134l221 -311h-153l-137 224l-145 -224h-154z" />
    <glyph glyph-name="Scedilla" unicode="&#x15e;" horiz-adv-x="959" 
d="M56 85l46 162q55 -47 91 -72q108 -75 234 -75q125 0 197 74q64 66 64 162q0 112 -91 181q-42 32 -207 110q-171 81 -241 161q-83 94 -83 220q0 90 41.5 168t116.5 130q114 79 295 79q154 0 318 -73l-43 -145q-158 109 -289 109q-104 0 -169 -66q-55 -57 -55 -137
q0 -95 81 -158q52 -41 202 -110q189 -86 256 -168q84 -104 84 -241q0 -93 -40.5 -178.5t-113.5 -143.5q-117 -94 -316 -94q-157 0 -299 64q-32 15 -79 41zM307 -407l87 309h162l-148 -309h-101z" />
    <glyph glyph-name="scedilla" unicode="&#x15f;" horiz-adv-x="852" 
d="M49 72l36 145q57 -47 96 -71q102 -62 214 -62q98 0 153 56q51 53 51 122q0 76 -71 124q-41 29 -188 87q-159 63 -213 141q-50 73 -50 161q0 168 143 255q100 61 235 61q154 0 320 -71l-35 -132q-142 102 -265 102q-83 0 -137 -45q-58 -47 -58 -119q0 -65 54 -105
q37 -28 172 -79q157 -61 225 -127q71 -71 71 -191q0 -169 -127 -264q-105 -79 -283 -79q-173 0 -343 91zM276 -408l87 308h162l-148 -308h-101z" />
    <glyph glyph-name="Scaron" unicode="&#x160;" horiz-adv-x="959" 
d="M56 85l46 162q55 -47 91 -72q108 -75 234 -75q125 0 197 74q64 66 64 162q0 112 -91 181q-42 32 -207 110q-171 81 -241 161q-83 94 -83 220q0 90 41.5 168t116.5 130q114 79 295 79q154 0 318 -73l-43 -145q-158 109 -289 109q-104 0 -169 -66q-55 -57 -55 -137
q0 -95 81 -158q52 -41 202 -110q189 -86 256 -168q84 -104 84 -241q0 -93 -40.5 -178.5t-113.5 -143.5q-117 -94 -316 -94q-157 0 -299 64q-32 15 -79 41zM148 1744h156l172 -189l165 189h151l-250 -270h-135z" />
    <glyph glyph-name="scaron" unicode="&#x161;" horiz-adv-x="852" 
d="M49 72l36 145q57 -47 96 -71q102 -62 214 -62q98 0 153 56q51 53 51 122q0 76 -71 124q-41 29 -188 87q-159 63 -213 141q-50 73 -50 161q0 168 143 255q100 61 235 61q154 0 320 -71l-35 -132q-142 102 -265 102q-83 0 -137 -45q-58 -47 -58 -119q0 -65 54 -105
q37 -28 172 -79q157 -61 225 -127q71 -71 71 -191q0 -169 -127 -264q-105 -79 -283 -79q-173 0 -343 91zM729 1500l-233 -311h-135l-221 311h153l137 -225l145 225h154z" />
    <glyph glyph-name="Tcedilla" unicode="&#x162;" horiz-adv-x="914" 
d="M-38 1365h990v-124q-49 9 -85 9h-294v-1184q0 -36 9 -66h-246q9 29 9 66v1184h-296q-42 0 -87 -9v124zM308 -407l87 309h162l-148 -309h-101z" />
    <glyph glyph-name="tcedilla" unicode="&#x163;" horiz-adv-x="607" 
d="M167 967h-158v99h158v206l213 23q-4 -59 -4 -78v-151h172v-99h-172v-771q0 -95 79 -95q38 0 96 32v-110q-87 -42 -180 -42q-111 0 -162 59q-42 49 -42 150v777zM183 -408l87 308h162l-148 -308h-101z" />
    <glyph glyph-name="Tcaron" unicode="&#x164;" horiz-adv-x="914" 
d="M-38 1365h990v-124q-49 9 -85 9h-294v-1184q0 -36 9 -66h-246q9 29 9 66v1184h-296q-42 0 -87 -9v124zM135 1744h156l172 -189l165 189h151l-250 -270h-135z" />
    <glyph glyph-name="tcaron" unicode="&#x165;" horiz-adv-x="700" 
d="M167 967h-158v99h158v206l213 23q-4 -59 -4 -78v-151h172v-99h-172v-771q0 -95 79 -95q38 0 96 32v-110q-87 -42 -180 -42q-111 0 -162 59q-42 49 -42 150v777zM616 1570l158 -63l-191 -346l-118 47z" />
    <glyph glyph-name="Tbar" unicode="&#x166;" horiz-adv-x="1108" 
d="M669 850h359v-162h-359v-688h-231v688h-358v162h358v319h-438v196h1108v-196h-439v-319z" />
    <glyph glyph-name="tbar" unicode="&#x167;" horiz-adv-x="643" 
d="M400 694h159v-129h-159v-245q0 -94 17 -123q27 -46 111 -46q37 0 83 6v-158q-83 -8 -142 -8q-176 0 -238 85q-31 43 -39 108q-4 30 -4 102v279h-133v129h133v153h-174v139h174v308h212v-308h211v-139h-211v-153z" />
    <glyph glyph-name="utilde" unicode="&#x169;" horiz-adv-x="1141" 
d="M798 0v146q-62 -86 -119 -119q-82 -46 -202 -46q-185 0 -273 105q-68 80 -68 215v700q0 34 -8 65h8h213h8q-8 -28 -8 -65v-669q0 -84 42 -136q53 -67 158 -67q113 0 186 73q58 59 58 153v646q0 35 -8 65h8h212h8q-8 -27 -8 -65v-935q0 -32 8 -66h-8h-207zM291 1237v154
q83 35 146 35q62 0 265 -47q32 -8 64 -8q43 0 84 35v-153q-54 -27 -94 -27t-187 38q-72 19 -143 19q-34 0 -60 -7q-29 -8 -75 -39z" />
    <glyph glyph-name="Umacron" unicode="&#x16a;" horiz-adv-x="1357" 
d="M1227 1365q-9 -28 -9 -66v-847q0 -164 -78 -277q-68 -99 -184.5 -147t-287.5 -48q-152 0 -257 41.5t-175 129.5q-96 121 -96 290v858q0 36 -9 66h246q-9 -31 -9 -65v-863q0 -122 57 -206q94 -140 303 -140q227 0 324 140q64 93 64 237v831q-1 40 -9 66h120zM383 1506v136
h643v-136h-643z" />
    <glyph glyph-name="umacron" unicode="&#x16b;" horiz-adv-x="1138" 
d="M796 0v146q-57 -78 -110 -112q-84 -53 -211 -53q-171 0 -263 97q-76 80 -76 231v692q0 34 -8 65h225q-8 -28 -8 -65v-669q0 -86 41 -137q54 -65 162 -65q129 0 198 84q46 58 46 141v646q0 35 -8 65h225q-8 -26 -8 -65v-935q0 -32 8 -66h-213zM239 1241v136h659v-136h-659
z" />
    <glyph glyph-name="ubreve" unicode="&#x16d;" horiz-adv-x="1141" 
d="M798 0v146q-62 -86 -119 -119q-82 -46 -202 -46q-185 0 -273 105q-68 80 -68 215v700q0 34 -8 65h8h213h8q-8 -28 -8 -65v-669q0 -84 42 -136q53 -67 158 -67q113 0 186 73q58 59 58 153v646q0 35 -8 65h8h212h8q-8 -27 -8 -65v-935q0 -32 8 -66h-8h-207zM765 1469h126
q-14 -91 -63 -160q-99 -141 -272 -141q-148 0 -237 119q-53 71 -70 182h121q17 -72 51 -112q57 -67 140 -67q96 0 162 90q28 37 42 89z" />
    <glyph glyph-name="Uring" unicode="&#x16e;" horiz-adv-x="1357" 
d="M1227 1365q-9 -28 -9 -66v-847q0 -164 -78 -277q-68 -99 -184.5 -147t-287.5 -48q-152 0 -257 41.5t-175 129.5q-96 121 -96 290v858q0 36 -9 66h246q-9 -31 -9 -65v-863q0 -122 57 -206q94 -140 303 -140q227 0 324 140q64 93 64 237v831q-1 40 -9 66h120zM718 1814
q75 0 129 -54q53 -54 53 -131q0 -76 -53 -130q-54 -54 -131 -54q-76 0 -128 53q-54 57 -54 131q0 75 54 131q52 54 130 54zM715 1727q-41 0 -69 -29q-29 -30 -29 -69q0 -38 29 -68q28 -29 70 -29q43 0 72 29t29 68q0 40 -28 68q-30 30 -74 30z" />
    <glyph glyph-name="uring" unicode="&#x16f;" horiz-adv-x="1138" 
d="M796 0v146q-57 -78 -110 -112q-84 -53 -211 -53q-171 0 -263 97q-76 80 -76 231v692q0 34 -8 65h225q-8 -28 -8 -65v-669q0 -86 41 -137q54 -65 162 -65q129 0 198 84q46 58 46 141v646q0 35 -8 65h225q-8 -26 -8 -65v-935q0 -32 8 -66h-213zM570 1549q75 0 129 -55
q53 -53 53 -130q0 -76 -53 -130q-54 -54 -131 -54q-76 0 -128 53q-54 57 -54 131q0 75 54 131q52 54 130 54zM567 1462q-41 0 -69 -29q-29 -30 -29 -69q0 -38 29 -68q28 -29 70 -29q43 0 72 29t29 69q0 39 -28 68q-30 29 -74 29z" />
    <glyph glyph-name="Udblacute" unicode="&#x170;" horiz-adv-x="1357" 
d="M1227 1365q-9 -28 -9 -66v-847q0 -164 -78 -277q-68 -99 -184.5 -147t-287.5 -48q-152 0 -257 41.5t-175 129.5q-96 121 -96 290v858q0 36 -9 66h246q-9 -31 -9 -65v-863q0 -122 57 -206q94 -140 303 -140q227 0 324 140q64 93 64 237v831q-1 40 -9 66h120zM459 1468
l116 265h166l-191 -265h-91zM769 1468l116 265h166l-191 -265h-91z" />
    <glyph glyph-name="udblacute" unicode="&#x171;" horiz-adv-x="1138" 
d="M796 0v146q-57 -78 -110 -112q-84 -53 -211 -53q-171 0 -263 97q-76 80 -76 231v692q0 34 -8 65h225q-8 -28 -8 -65v-669q0 -86 41 -137q54 -65 162 -65q129 0 198 84q46 58 46 141v646q0 35 -8 65h225q-8 -26 -8 -65v-935q0 -32 8 -66h-213zM331 1204l116 264h166
l-191 -264h-91zM641 1204l116 264h166l-191 -264h-91z" />
    <glyph glyph-name="Uogonek" unicode="&#x172;" horiz-adv-x="1357" 
d="M1071 -193l4 -111q-80 -42 -155 -42q-79 0 -132 53q-52 52 -52 127q0 81 74 156q-73 -10 -144 -10q-151 0 -255.5 41.5t-174.5 129.5q-96 121 -96 290v858q0 36 -9 66h246q-9 -31 -9 -65v-863q0 -122 57 -206q94 -140 303 -140q227 0 324 140q64 93 64 237v831
q-1 40 -9 66h120q-9 -28 -9 -66v-847q0 -169 -79 -277q-40 -56 -114 -106l-53 -37q-115 -79 -115 -174q0 -41 28 -69q25 -25 63 -25q57 0 123 43z" />
    <glyph glyph-name="uogonek" unicode="&#x173;" horiz-adv-x="1138" 
d="M1133 -208l4 -112q-80 -42 -155 -42q-78 0 -131 53q-52 52 -52 127q0 92 98 182h-101v146q-57 -78 -110 -112q-84 -53 -211 -53q-171 0 -263 97q-76 80 -76 231v692q0 34 -8 65h225q-8 -28 -8 -65v-669q0 -86 41 -137q54 -65 162 -65q129 0 198 84q46 58 46 141v646
q0 35 -8 65h225q-8 -26 -8 -65v-935q0 -32 8 -66q-89 -73 -89 -157q0 -43 28 -70q25 -25 63 -25q56 0 122 44z" />
    <glyph glyph-name="Wcircymflex" unicode="&#x174;" horiz-adv-x="1644" 
d="M816 1088l-279 -1031q-5 -17 -7 -57h-207v17q0 27 -6 52l-316 1235q-8 30 -20 61h242q-1 -8 -1 -11q0 -12 7 -42l256 -1030l283 1022q8 29 8 42q0 6 -3 19h211q-1 -10 -1 -16q0 -17 6 -40l283 -1027l263 1027q7 28 7 41q0 4 -1 15h122q-17 -40 -21 -56l-320 -1252
q-3 -16 -8 -57h-213q0 36 -8 69zM528 1445l233 312h135l221 -312h-153l-137 225l-145 -225h-154z" />
    <glyph glyph-name="Ycircymflex" unicode="&#x176;" horiz-adv-x="918" 
d="M342 598l-352 712q-17 35 -32 55h264q1 -20 20 -59l280 -566l289 569q13 25 20 56h129q-16 -21 -32 -51l-357 -713v-535q0 -36 8 -66h-8h-229h-8q8 30 8 66v532zM165 1445l233 312h134l222 -312h-153l-137 225l-145 -225h-154z" />
    <glyph glyph-name="ycircymflex" unicode="&#x177;" horiz-adv-x="888" 
d="M363 0l-365 1007q-20 47 -24 59h238q4 -11 16 -59l251 -720l295 720q16 48 20 59h122q-4 -11 -28 -59l-524 -1267q-16 -48 -20 -59h-125q5 12 29 59zM150 1161l234 312h134l221 -312h-152l-137 225l-145 -225h-155z" />
    <glyph glyph-name="Zacute" unicode="&#x179;" horiz-adv-x="1051" 
d="M45 0v123l704 1137h-607q-40 0 -97 -8v113h961v-114l-705 -1141h616q55 0 89 9v-119h-961zM420 1444l139 316h179l-215 -316h-103z" />
    <glyph glyph-name="zacute" unicode="&#x17a;" horiz-adv-x="965" 
d="M38 0v108l637 854h-548q-40 0 -82 -9v113h876v-107l-635 -853h557q38 0 78 8v-114h-883zM377 1189l139 316h179l-215 -316h-103z" />
    <glyph glyph-name="Zdot" unicode="&#x17b;" horiz-adv-x="1051" 
d="M45 0v123l704 1137h-607q-40 0 -97 -8v113h961v-114l-705 -1141h616q55 0 89 9v-119h-961zM529 1669q55 0 92 -25q35 -23 35 -70q0 -50 -37 -75q-36 -24 -93 -24q-62 0 -100 28q-31 23 -31 68t32 69q39 29 102 29z" />
    <glyph glyph-name="zdot" unicode="&#x17c;" horiz-adv-x="965" 
d="M38 0v108l637 854h-548q-40 0 -82 -9v113h876v-107l-635 -853h557q38 0 78 8v-114h-883zM486 1404q55 0 92 -25q35 -23 35 -70q0 -50 -37 -75q-36 -24 -93 -24q-62 0 -100 28q-31 23 -31 68t32 69q39 29 102 29z" />
    <glyph glyph-name="Zcaron" unicode="&#x17d;" horiz-adv-x="1051" 
d="M45 0v123l704 1137h-607q-40 0 -97 -8v113h961v-114l-705 -1141h616q55 0 89 9v-119h-961zM204 1744h156l172 -189l165 189h151l-250 -270h-135z" />
    <glyph glyph-name="zcaron" unicode="&#x17e;" horiz-adv-x="965" 
d="M38 0v108l637 854h-548q-40 0 -82 -9v113h876v-107l-635 -853h557q38 0 78 8v-114h-883zM781 1500l-233 -311h-135l-221 311h153l137 -225l145 225h154z" />
    <glyph glyph-name="uni01CD" unicode="&#x1cd;" horiz-adv-x="1180" 
d="M266 427l-132 -370q-9 -25 -8 -57h-129q19 31 28 57l447 1258q9 25 9 50h198q2 -22 10 -45l461 -1263q9 -25 32 -57h-265q-1 27 -11 57l-131 370h-509zM300 527h438l-222 618zM884 1757l-234 -312h-134l-221 312h153l137 -225l145 225h154z" />
    <glyph glyph-name="uni01CE" unicode="&#x1ce;" horiz-adv-x="1021" 
d="M668 144q-64 -76 -119 -108q-96 -55 -211 -55q-139 0 -216 89q-75 88 -75 217q0 171 131 259q78 52 169 80l174 52q75 23 108 55q32 32 32 94q0 66 -53 111q-52 42 -143 42q-92 0 -160 -35q-48 -25 -116 -79l-34 135q99 46 151 61q97 29 212 29q187 0 274 -75
q76 -66 76 -172v-633q0 -91 61 -91q29 0 72 31v-117q-85 -53 -157 -53q-95 0 -140 57q-25 31 -36 106zM661 636q-41 -23 -53 -28q-80 -32 -166 -66q-142 -56 -175 -148q-15 -41 -15 -83q0 -83 50 -143q41 -49 129 -49q110 0 176 86q54 70 54 153v278zM805 1473l-233 -312
h-135l-221 312h153l137 -225l145 225h154z" />
    <glyph glyph-name="Ucaron" unicode="&#x1d3;" horiz-adv-x="1357" 
d="M1227 1365q-9 -28 -9 -66v-847q0 -164 -78 -277q-68 -99 -184.5 -147t-287.5 -48q-152 0 -257 41.5t-175 129.5q-96 121 -96 290v858q0 36 -9 66h246q-9 -31 -9 -65v-863q0 -122 57 -206q94 -140 303 -140q227 0 324 140q64 93 64 237v831q-1 40 -9 66h120zM386 1744h156
l172 -189l165 189h151l-250 -270h-135z" />
    <glyph glyph-name="ucaron" unicode="&#x1d4;" horiz-adv-x="1138" 
d="M796 0v146q-57 -78 -110 -112q-84 -53 -211 -53q-171 0 -263 97q-76 80 -76 231v692q0 34 -8 65h225q-8 -28 -8 -65v-669q0 -86 41 -137q54 -65 162 -65q129 0 198 84q46 58 46 141v646q0 35 -8 65h225q-8 -26 -8 -65v-935q0 -32 8 -66h-213zM873 1500l-233 -311h-135
l-221 311h153l137 -225l145 225h154z" />
    <glyph glyph-name="Gcaron" unicode="&#x1e6;" horiz-adv-x="1324" 
d="M1213 74q-124 -43 -207 -63q-121 -31 -257 -31q-333 0 -502 197q-78 92 -121.5 222t-43.5 272q0 181 62.5 332t174.5 241q175 141 464 141q123 0 234 -28q48 -12 143 -46v-169q-75 49 -127 75q-108 53 -240 53q-236 0 -363 -175q-50 -68 -78 -174.5t-28 -226.5
q0 -183 51.5 -320.5t144.5 -203.5q109 -78 254 -78q70 0 123 18q29 9 83 38v534q0 37 -8 66h8h220h8q-8 -31 -8 -66v-526q0 -46 13 -82zM956 1757l-233 -312h-135l-221 312h153l137 -225l145 225h154z" />
    <glyph glyph-name="gcaron" unicode="&#x1e7;" horiz-adv-x="1125" 
d="M139 -100l-52 153l229 167q-89 50 -135 103q-94 109 -94 302q0 116 40 211.5t113 154.5q120 98 312 98q46 0 109 -3q81 63 94 107q8 23 11 72h199q-9 -70 -42 -113q-27 -37 -120 -96q111 -66 161 -135q83 -114 83 -283q0 -241 -151 -362q-112 -90 -280 -101
q-65 -5 -85 -7q-30 -3 -54 -18l-188 -111q258 59 382 59q165 0 282 -50q131 -55 131 -172q0 -115 -139 -173q-111 -47 -295 -47q-230 0 -523 92v39q169 -45 276 -55q70 -7 136 -7q117 0 195 32q86 35 86 98q0 68 -107 100q-85 25 -191 25q-84 0 -170 -12q-81 -11 -213 -68z
M560 982q-134 0 -200 -111q-49 -83 -49 -238q0 -356 251 -356q257 0 257 358q0 172 -73 266q-63 81 -186 81zM857 1473l-233 -312h-134l-222 312h153l137 -225l145 225h154z" />
    <glyph glyph-name="semicolon" unicode="&#x37e;" horiz-adv-x="535" 
d="M221 233l177 -74l-220 -402l-132 56zM286 869q55 0 92 -30q43 -35 43 -88q0 -54 -43 -89q-37 -30 -94 -30t-93 30q-43 36 -43 88q0 54 43 89q37 30 95 30z" />
    <glyph glyph-name="anoteleia" unicode="&#x387;" horiz-adv-x="535" 
d="M269 672q56 0 93 -30q43 -35 43 -88q0 -54 -43 -89q-37 -30 -94 -30q-58 0 -94 30q-43 36 -43 88q0 54 43 89q37 30 95 30z" />
    <glyph glyph-name="Wdieresis" unicode="&#x1e84;" horiz-adv-x="1644" 
d="M816 1088l-279 -1031q-5 -17 -7 -57h-207v17q0 27 -6 52l-316 1235q-8 30 -20 61h242q-1 -8 -1 -11q0 -12 7 -42l256 -1030l283 1022q8 29 8 42q0 6 -3 19h211q-1 -10 -1 -16q0 -17 6 -40l283 -1027l263 1027q7 28 7 41q0 4 -1 15h122q-17 -40 -21 -56l-320 -1252
q-3 -16 -8 -57h-213q0 36 -8 69zM607 1669q55 0 92 -25q35 -23 35 -70q0 -50 -37 -75q-36 -24 -92 -24q-63 0 -101 28q-31 23 -31 68t32 69q39 29 102 29zM1044 1671q55 0 92 -25q35 -23 35 -70q0 -50 -37 -75q-36 -24 -92 -24q-62 0 -100 28q-31 23 -31 68t32 69
q39 29 101 29z" />
    <glyph glyph-name="hyphen" unicode="&#x2010;" horiz-adv-x="483" 
d="M0 477l47 161h436l-45 -161h-438z" />
    <glyph glyph-name="nbhyphen" unicode="&#x2011;" horiz-adv-x="483" 
d="M0 477l47 161h436l-45 -161h-438z" />
    <glyph glyph-name="figuredash" unicode="&#x2012;" horiz-adv-x="1143" 
d="M128 477l47 161h840l-46 -161h-841z" />
    <glyph glyph-name="horizontalbar" unicode="&#x2015;" horiz-adv-x="1449" 
d="M0 477l47 161h1402l-45 -161h-1404z" />
    <glyph glyph-name="underscoredbl" unicode="&#x2017;" 
d="M0 -114h1024v-101h-1024v101zM0 -354h1024v-101h-1024v101z" />
    <glyph glyph-name="quotereversed" unicode="&#x201b;" horiz-adv-x="558" 
 />
    <glyph glyph-name="radicalex" unicode="&#x203e;" 
d="M0 1604h1024v-126h-1024v126z" />
    <glyph glyph-name="zerosuperior" unicode="&#x2070;" horiz-adv-x="710" 
d="M358 1377q167 0 236 -123q37 -64 46 -138q8 -70 8 -156q0 -145 -19 -216q-57 -210 -273 -210q-168 0 -237 118q-40 68 -49 145q-8 69 -8 150q0 164 20 231q34 116 119 166q56 33 157 33zM353 1299q-34 0 -63 -22t-41 -57q-24 -65 -24 -257q0 -147 6 -197q10 -80 40 -117
t85 -37q37 0 67 21.5t41 57.5q21 67 21 261q0 152 -7 204q-21 143 -125 143z" />
    <glyph glyph-name="foursuperior" unicode="&#x2074;" horiz-adv-x="706" 
d="M383 768h-334v102q14 13 30 38l284 419q15 22 19 38h165q-7 -23 -7 -46v-450h50q26 0 50 8v-113q-31 4 -53 4h-47v-176q0 -23 7 -46h-171q7 25 7 46v176zM386 869v364l-241 -364h241z" />
    <glyph glyph-name="fivesuperior" unicode="&#x2075;" horiz-adv-x="706" 
d="M92 580l33 108q79 -71 153 -71q71 0 110 52q39 53 39 142q0 152 -115 152q-51 0 -91 -39l-79 31q4 19 4 55v297q0 29 -5 58h410v-106q-30 5 -54 5h-254v-249q56 40 122 40q98 0 161 -65q64 -65 64 -175q0 -139 -91 -216q-77 -65 -204 -65q-99 0 -203 46z" />
    <glyph glyph-name="sixsuperior" unicode="&#x2076;" horiz-adv-x="706" 
d="M248 1033q66 79 158 79t154 -64q72 -75 72 -216q0 -160 -92 -239q-67 -59 -176 -59q-283 0 -283 362q0 192 57 298q98 183 299 183q29 0 70 -7l27 -94q-59 19 -87 19q-65 0 -118 -49q-70 -66 -81 -213zM242 934q-3 -36 -3 -63q0 -90 20 -164q27 -96 103 -96
q115 0 115 221q0 77 -23 129q-27 61 -86 61q-49 0 -86 -35q-9 -8 -24.5 -28.5t-15.5 -24.5z" />
    <glyph glyph-name="sevensuperior" unicode="&#x2077;" horiz-adv-x="706" 
d="M486 1251h-326q-25 0 -61 -7v121h500v-99q-9 -13 -20 -38l-281 -643q-7 -17 -13 -39h-168q22 26 33 47z" />
    <glyph glyph-name="eightsuperior" unicode="&#x2078;" horiz-adv-x="706" 
d="M473 994q157 -43 157 -205q0 -255 -275 -255q-278 0 -278 246q0 129 78 181q27 18 80 32q-55 17 -80 39q-51 45 -51 133q0 101 70 160q63 52 179 52q117 0 180 -52q70 -59 70 -159q0 -96 -58 -141q-21 -17 -72 -31zM352 1301q-98 0 -98 -139t99 -139q100 0 100 141
q0 137 -101 137zM351 940q-115 0 -115 -164q0 -160 116 -160q119 0 119 159q0 165 -120 165z" />
    <glyph glyph-name="ninesuperior" unicode="&#x2079;" horiz-adv-x="706" 
d="M459 878q-66 -79 -158 -79t-154 64q-72 75 -72 216q0 160 92 239q67 59 176 59q139 0 211 -92t72 -270q0 -192 -57 -298q-98 -183 -299 -183q-34 0 -70 7l-27 94q58 -19 87 -19q65 0 118 49q55 52 72 140q5 27 9 73zM465 976q3 47 3 69q0 113 -31 191q-26 64 -92 64
q-115 0 -115 -221q0 -77 23 -129q28 -61 86 -61q48 0 86 35q9 9 24.5 29t15.5 23z" />
    <glyph glyph-name="parenleftsuperior" unicode="&#x207d;" horiz-adv-x="467" 
d="M276 1459l57 -43q-9 -24 -48 -135q-55 -155 -55 -337q0 -172 53 -331q5 -16 41 -119l9 -24l-57 -43q-205 255 -205 516q0 246 205 516z" />
    <glyph glyph-name="parenrightsuperior" unicode="&#x207e;" horiz-adv-x="467" 
d="M184 1459q206 -268 206 -515q0 -165 -90 -342q-45 -88 -116 -175l-56 43q103 252 103 475q0 212 -103 471z" />
    <glyph glyph-name="nsuperior" unicode="&#x207f;" horiz-adv-x="744" 
d="M94 603v540q0 22 -7 46h15h137v-69q64 84 195 84q113 0 176 -69q40 -43 40 -121v-422q0 -22 7 -46h-15h-131h-15q7 21 7 46v404q0 105 -118 105q-76 0 -111 -45q-32 -40 -32 -97v-367q0 -23 7 -46h-15h-132h-15q7 23 7 46v11z" />
    <glyph glyph-name="zeroinferior" unicode="&#x2080;" horiz-adv-x="710" 
d="M358 831q167 0 236 -123q37 -64 46 -138q8 -70 8 -156q0 -145 -19 -216q-57 -210 -273 -210q-168 0 -237 118q-40 68 -49 145q-8 69 -8 150q0 164 20 231q34 116 119 166q56 33 157 33zM353 753q-34 0 -63 -22t-41 -57q-24 -65 -24 -257q0 -147 6 -197q10 -80 40 -117
t85 -37q37 0 67 21.5t41 57.5q21 67 21 261q0 152 -7 204q-21 143 -125 143z" />
    <glyph glyph-name="oneinferior" unicode="&#x2081;" horiz-adv-x="706" 
d="M286 690l-154 -65v60q0 18 -8 38l335 114q-9 -26 -9 -49v-741q0 -20 7 -47h-178q7 23 7 47v643z" />
    <glyph glyph-name="twoinferior" unicode="&#x2082;" horiz-adv-x="706" 
d="M88 99q331 274 331 505q0 63 -34 99q-37 40 -105 40q-72 0 -155 -52l-17 100q118 40 210 40q116 0 184 -53q81 -64 81 -160q0 -160 -209 -379q-75 -79 -140 -127h293q44 0 68 8v-120h-515q8 22 8 43v56z" />
    <glyph glyph-name="threeinferior" unicode="&#x2083;" horiz-adv-x="706" 
d="M111 149q84 -75 165 -75q61 0 98 43q38 44 38 116q0 74 -41 117q-39 42 -98 42q-4 0 -42 -3v94q26 -2 41 -2q59 0 89 35q35 41 35 104q0 51 -25 84q-31 42 -92 42q-62 0 -137 -56l-10 105q86 36 175 36q122 0 187 -59q62 -57 62 -146q0 -146 -164 -189q67 -15 102 -38
q82 -53 82 -164q0 -115 -81 -185q-71 -62 -192 -62q-108 0 -218 57z" />
    <glyph glyph-name="fourinferior" unicode="&#x2084;" horiz-adv-x="706" 
d="M383 223h-334v102q14 13 30 38l284 418q15 22 19 38h165q-7 -23 -7 -46v-449h50q26 0 50 8v-113q-31 4 -53 4h-47v-176q0 -24 7 -47h-171q7 25 7 47v176zM386 324v363l-241 -363h241z" />
    <glyph glyph-name="fiveinferior" unicode="&#x2085;" horiz-adv-x="706" 
d="M92 34l33 108q78 -71 153 -71q71 0 110 52q39 53 39 141q0 153 -115 153q-51 0 -91 -39l-79 31q4 19 4 55v297q0 29 -5 58h410v-106q-30 5 -54 5h-254v-249q56 40 122 40q98 0 161 -65q64 -65 64 -175q0 -139 -91 -216q-77 -65 -204 -65q-98 0 -203 46z" />
    <glyph glyph-name="sixinferior" unicode="&#x2086;" horiz-adv-x="706" 
d="M248 487q66 79 158 79t154 -64q72 -75 72 -216q0 -160 -92 -239q-67 -59 -176 -59q-283 0 -283 362q0 192 57 298q98 183 299 183q31 0 70 -6l27 -95q-58 19 -87 19q-65 0 -118 -49q-70 -66 -81 -213zM242 389q-3 -49 -3 -69q0 -113 31 -191q25 -64 92 -64q115 0 115 221
q0 77 -23 129q-27 61 -86 61q-49 0 -86 -35q-9 -8 -24.5 -28.5t-15.5 -23.5z" />
    <glyph glyph-name="seveninferior" unicode="&#x2087;" horiz-adv-x="706" 
d="M486 705h-326q-25 0 -61 -7v121h500v-99q-9 -13 -20 -38l-281 -643q-7 -17 -13 -39h-168q22 26 33 47z" />
    <glyph glyph-name="eightinferior" unicode="&#x2088;" horiz-adv-x="706" 
d="M473 448q157 -43 157 -205q0 -255 -275 -255q-278 0 -278 246q0 130 78 181q27 18 80 33q-55 17 -80 38q-51 45 -51 134q0 100 70 159q63 52 179 52q117 0 180 -52q70 -59 70 -158q0 -97 -58 -142q-21 -17 -72 -31zM352 755q-98 0 -98 -139t99 -139q100 0 100 141
q0 137 -101 137zM351 394q-115 0 -115 -164q0 -160 116 -160q119 0 119 159q0 165 -120 165z" />
    <glyph glyph-name="nineinferior" unicode="&#x2089;" horiz-adv-x="706" 
d="M459 332q-66 -79 -158 -79t-154 64q-72 75 -72 216q0 160 92 239q67 59 176 59q139 0 211 -92t72 -270q0 -192 -57 -298q-98 -183 -298 -183q-31 0 -71 7l-27 94q58 -19 87 -19q65 0 118 49q55 52 72 140q5 28 9 73zM465 431q3 46 3 68q0 114 -31 191q-26 64 -92 64
q-115 0 -115 -221q0 -77 23 -129q28 -61 86 -61q48 0 86 35q9 9 24.5 29t15.5 24z" />
    <glyph glyph-name="franc" unicode="&#x20a3;" horiz-adv-x="1297" 
d="M143 1365h688v-109q-36 8 -72 8h-382v-524h233q36 0 70 8v-112q-29 8 -67 8h-236v-578q0 -36 9 -66h-243q9 31 9 66v1234q0 34 -9 65zM786 773h201v-136q32 88 97 123q66 33 168 38v-165q-26 2 -38 2q-104 0 -165 -63q-58 -60 -58 -188v-318q0 -36 8 -66h-213q8 32 8 66
v641q0 36 -8 66z" />
    <glyph glyph-name="peseta" unicode="&#x20a7;" horiz-adv-x="1930" 
d="M381 587v-521q0 -29 10 -66h-247q9 31 9 66v1232q0 37 -9 67h437q160 0 271 -64q170 -100 170 -312q0 -237 -207 -341q-121 -61 -289 -61h-145zM381 692h122q100 0 161 36q59 35 91 102q35 72 35 155q0 152 -97 227q-66 52 -171 52h-141v-572zM1037 569h-101v74h101v120
l157 16q-4 -32 -4 -55v-81h108v-74h-108v-446q0 -47 40 -47q24 0 70 24v-83q-62 -28 -123 -28q-140 0 -140 131v449zM1388 47l28 103q45 -33 71 -48q62 -36 131 -36q60 0 92 31q29 29 29 67q0 40 -39 65q-23 15 -118 50q-103 38 -139 84t-36 101q0 103 96 158q65 36 154 36
q100 0 215 -45l-27 -96q-99 65 -175 65q-50 0 -82 -25t-32 -65q0 -35 30 -56q22 -15 108 -45q101 -36 145 -77q49 -44 49 -118q0 -100 -86 -160q-68 -47 -185 -47q-113 0 -229 58z" />
    <glyph glyph-name="smallscriptl" unicode="&#x2113;" 
d="M513 536q-55 -293 -55 -396q0 -50 33 -50q40 0 89 101q20 41 46 41q33 0 33 -38q0 -51 -47 -123q-72 -111 -170 -111q-103 0 -141 97q-18 45 -18 118q0 63 10 196q-75 -84 -100 -84q-12 0 -22 15.5t-10 32.5q0 24 33 57q47 46 114 128q69 377 162 604q103 252 258 252
q76 0 116 -57q35 -52 35 -124q0 -179 -139 -392q-59 -90 -227 -267zM532 668q124 136 188 289q59 142 59 234q0 32 -16 53q-13 16 -32 16q-53 0 -86 -89q-55 -149 -113 -503z" />
    <glyph glyph-name="estimated" unicode="&#x212e;" horiz-adv-x="1105" 
d="M987 71q-78 -39 -135 -57q-102 -33 -231 -33q-272 0 -414 160q-126 141 -126 384q0 275 144 426q133 140 353 140q275 0 394 -228q60 -116 66 -292h-739q0 -175 39 -280q76 -209 311 -209q162 0 307 124zM305 665h510q-8 91 -26 148q-27 85 -92 137q-55 43 -130 43
q-97 0 -168 -77q-77 -84 -94 -251z" />
    <glyph glyph-name="onethird" unicode="&#x2153;" horiz-adv-x="1701" 
d="M280 1236l-154 -65v60q0 18 -8 38l335 114q-9 -26 -9 -49v-741q0 -20 7 -47h-178q7 23 7 47v643zM473 0l613 1365h110l-613 -1365h-110zM1101 149q84 -75 164 -75q62 0 99 43q38 44 38 116q0 74 -41 117q-39 42 -97 42q-6 0 -43 -3v94q26 -2 41 -2q60 0 89 35
q35 41 35 104q0 51 -25 84q-32 42 -92 42q-63 0 -137 -56l-10 105q86 36 175 36q122 0 186 -59q63 -57 63 -146q0 -97 -71 -150q-30 -22 -93 -39q67 -15 102 -38q82 -53 82 -164q0 -116 -80 -185q-72 -62 -193 -62q-107 0 -218 57z" />
    <glyph glyph-name="twothirds" unicode="&#x2154;" horiz-adv-x="1701" 
d="M98 645q331 276 331 506q0 63 -34 99q-37 40 -104 40q-74 0 -156 -54l-17 101q120 40 211 40q115 0 183 -53q81 -64 81 -160q0 -160 -209 -379q-75 -79 -140 -127h293q44 0 68 8v-120h-515q8 22 8 43v56zM507 0l613 1365h110l-613 -1365h-110zM1116 149q84 -75 165 -75
q61 0 98 43q38 44 38 116q0 74 -41 117q-39 42 -98 42q-4 0 -42 -3v94q26 -2 41 -2q59 0 89 35q35 41 35 104q0 50 -25 84q-32 42 -92 42q-63 0 -137 -56l-10 105q86 36 175 36q122 0 186 -59q63 -57 63 -146q0 -97 -71 -150q-30 -22 -93 -39q67 -15 102 -38q82 -53 82 -164
q0 -116 -80 -185q-72 -62 -193 -62q-107 0 -218 57z" />
    <glyph glyph-name="oneeighth" unicode="&#x215b;" horiz-adv-x="1701" 
d="M269 1236l-154 -65v60q0 18 -8 38l335 114q-9 -26 -9 -49v-741q0 -20 7 -47h-178q7 23 7 47v643zM449 0l613 1365h110l-613 -1365h-110zM1459 448q156 -43 156 -204q0 -256 -274 -256q-278 0 -278 249q0 127 78 178q27 18 79 33q-54 16 -79 38q-51 45 -51 133
q0 101 70 160q63 52 179 52q117 0 180 -52q70 -59 70 -159q0 -96 -58 -141q-22 -18 -72 -31zM1338 755q-98 0 -98 -139t99 -139q100 0 100 140q0 138 -101 138zM1337 394q-115 0 -115 -164q0 -160 115 -160q119 0 119 159q0 165 -119 165z" />
    <glyph glyph-name="threeeighths" unicode="&#x215c;" horiz-adv-x="1701" 
d="M111 694q85 -74 165 -74q60 0 98 43t38 116q0 74 -41 117q-39 41 -97 41q-2 0 -43 -2v94q27 -3 43 -3q57 0 87 35q35 41 35 104q0 51 -25 84q-32 42 -93 42q-62 0 -136 -55l-10 105q85 36 175 36q122 0 187 -59q62 -57 62 -146q0 -146 -164 -189q67 -16 102 -38
q82 -54 82 -165q0 -115 -81 -184q-71 -62 -192 -62q-109 0 -218 57zM488 0l613 1365h110l-613 -1365h-110zM1467 448q157 -43 157 -205q0 -255 -275 -255q-278 0 -278 249q0 127 78 178q27 18 79 33q-55 17 -79 38q-51 45 -51 134q0 100 70 159q63 52 178 52q117 0 180 -52
q70 -59 70 -158q0 -97 -57 -142q-22 -17 -72 -31zM1345 755q-97 0 -97 -139t98 -139q100 0 100 141q0 137 -101 137zM1345 394q-115 0 -115 -164q0 -160 116 -160q119 0 119 160q0 164 -120 164z" />
    <glyph glyph-name="fiveeighths" unicode="&#x215d;" horiz-adv-x="1700" 
d="M92 580l33 108q79 -71 153 -71q71 0 110 52q39 53 39 142q0 152 -115 152q-51 0 -91 -39l-79 31q4 19 4 55v297q0 29 -5 58h410v-106q-30 5 -54 5h-254v-249q56 40 122 40q98 0 161 -65q64 -65 64 -175q0 -139 -91 -216q-77 -65 -204 -65q-99 0 -203 46zM489 0l613 1365
h110l-613 -1365h-110zM1468 448q156 -42 156 -204q0 -256 -275 -256q-278 0 -278 249q0 127 78 178q27 18 80 33q-55 16 -79 38q-52 45 -52 134q0 100 70 159q63 52 179 52q117 0 180 -52q70 -58 70 -158q0 -97 -57 -142q-22 -18 -72 -31zM1346 755q-98 0 -98 -139t99 -139
q100 0 100 140q0 138 -101 138zM1345 394q-115 0 -115 -164q0 -160 116 -160q119 0 119 159q0 165 -120 165z" />
    <glyph glyph-name="seveneighths" unicode="&#x215e;" horiz-adv-x="1700" 
d="M526 1251h-326q-25 0 -61 -7v121h500v-99q-9 -13 -20 -38l-281 -643q-7 -17 -13 -39h-168q22 26 33 47zM435 0l613 1365h110l-613 -1365h-110zM1433 448q157 -43 157 -204q0 -256 -275 -256q-278 0 -278 250q0 126 78 177q27 18 80 33q-55 16 -80 38q-51 45 -51 133
q0 101 70 160q63 52 179 52q117 0 180 -52q70 -58 70 -158q0 -97 -58 -142q-22 -17 -72 -31zM1312 755q-98 0 -98 -139t99 -139q100 0 100 140q0 138 -101 138zM1311 394q-115 0 -115 -164q0 -160 116 -160q119 0 119 159q0 165 -120 165z" />
    <glyph glyph-name="arrowleft" unicode="&#x2190;" horiz-adv-x="1365" 
d="M1338 744v-104h-1024q24 -30 60 -96q47 -86 47 -117q0 -28 -31 -28q-16 0 -46 35q-93 111 -270 212q-47 25 -47 42q0 19 34 38q127 75 165 106q64 51 132 131q16 19 32 19q31 0 31 -30q0 -22 -42 -106q-21 -42 -65 -102h1024z" />
    <glyph glyph-name="arrowup" unicode="&#x2191;" horiz-adv-x="1365" 
d="M737 27h-104v1024q-31 -25 -96 -60q-86 -47 -117 -47q-28 0 -28 31q0 16 35 46q113 95 212 270q25 47 42 47q19 0 38 -34q75 -126 106 -165q50 -64 131 -132q19 -16 19 -32q0 -31 -31 -31q-20 0 -105 42q-41 21 -102 65v-1024z" />
    <glyph glyph-name="arrowright" unicode="&#x2192;" horiz-adv-x="1365" 
d="M27 636v104h1024q-24 30 -60 96q-47 86 -47 117q0 28 31 28q16 0 46 -35q94 -112 270 -212q47 -25 47 -42q0 -19 -34 -38q-126 -75 -165 -107q-64 -49 -132 -130q-16 -19 -32 -19q-31 0 -31 31q0 20 42 105q21 42 65 102h-1024z" />
    <glyph glyph-name="arrowdown" unicode="&#x2193;" horiz-adv-x="1365" 
d="M629 1338h104v-1024q30 25 96 60q86 47 117 47q28 0 28 -30q0 -17 -35 -47q-110 -93 -212 -270q-25 -47 -42 -47q-19 0 -38 34q-71 120 -106 165q-48 62 -131 132q-19 16 -19 32q0 31 31 31q20 0 105 -42q42 -21 102 -65v1024z" />
    <glyph glyph-name="arrowboth" unicode="&#x2194;" horiz-adv-x="1365" 
d="M312 635q45 -61 72 -117q36 -71 36 -91q0 -30 -31 -30q-12 0 -22 8q-5 5 -26 30q-86 100 -223 183q-49 30 -70 43q-21 11 -21 30q0 16 47 42q175 99 269 212q31 35 47 35q30 0 30 -29q0 -30 -48 -116q-35 -64 -60 -96h739q-24 29 -60 96q-47 86 -47 117q0 28 31 28
q16 0 46 -35q94 -112 270 -212q47 -25 47 -42q0 -19 -34 -38q-126 -75 -165 -106q-64 -50 -132 -131q-16 -19 -32 -19q-31 0 -31 31q0 21 42 105q21 42 65 102h-739z" />
    <glyph glyph-name="arrowupdn" unicode="&#x2195;" horiz-adv-x="1365" 
d="M737 312q61 45 117 73q71 36 91 36q30 0 30 -31q0 -13 -8 -22q-5 -5 -30 -26q-99 -87 -183 -223q-29 -48 -43 -71q-11 -21 -30 -21q-17 0 -42 47q-99 175 -212 270q-35 30 -35 47q0 30 29 30q30 0 116 -48q64 -35 96 -61v739q-30 -24 -96 -60q-86 -47 -117 -47
q-28 0 -28 31q0 16 35 46q113 95 212 270q25 47 42 47q19 0 38 -34q74 -125 106 -165q51 -64 131 -132q19 -16 19 -32q0 -31 -31 -31q-20 0 -105 42q-42 21 -102 65v-739z" />
    <glyph glyph-name="arrowupdnbse" unicode="&#x21a8;" horiz-adv-x="1365" 
d="M737 312q61 45 117 73q71 36 91 36q30 0 30 -31q0 -13 -8 -22q-5 -5 -30 -26q-54 -45 -92.5 -92t-90.5 -131q-28 -46 -43 -71q-11 -21 -30 -21q-17 0 -42 47q-100 175 -212 270q-35 30 -35 47q0 30 28 30q31 0 117 -48q64 -35 96 -61v739q-30 -24 -96 -60
q-86 -47 -116 -47q-29 0 -29 31q0 16 35 46q113 95 212 270q25 47 42 47q19 0 38 -34q74 -125 106 -165q51 -64 131 -132q19 -16 19 -32q0 -31 -31 -31q-20 0 -105 42q-42 21 -102 65v-739zM413 -139h540v-88h-540v88z" />
    <glyph glyph-name="emptyset" unicode="&#x2205;" horiz-adv-x="1266" 
d="M907 1125q45 -31 77 -64q146 -148 146 -351q0 -205 -146 -352q-144 -145 -351 -145q-85 0 -172 31l-110 -217l-100 52l110 215q-45 31 -78 64q-146 148 -146 351q0 205 146 352q144 145 351 145q87 0 174 -31l110 217l98 -51zM854 1022l-341 -675q62 -20 120 -20
q160 0 270 112q113 113 113 271q0 156 -113 270q-20 21 -49 42zM413 397l343 675q-63 20 -121 20q-160 0 -271 -112q-113 -113 -113 -270q0 -191 162 -313z" />
    <glyph glyph-name="minus" unicode="&#x2212;" horiz-adv-x="1043" 
d="M103 620v126h837v-126h-837z" />
    <glyph glyph-name="fraction" unicode="&#x2215;" horiz-adv-x="289" 
d="M-217 0l613 1365h110l-613 -1365h-110z" />
    <glyph glyph-name="intersection" unicode="&#x2229;" horiz-adv-x="1197" 
d="M1128 0h-219v638q0 154 -8 236q-11 114 -60 178q-41 54 -106 85t-136 31q-105 0 -190 -64q-50 -37 -75 -88t-35 -133q-10 -79 -10 -245v-638h-219v632q0 226 12 314q29 211 201 328q133 91 316 91q182 0 316 -91q172 -117 201 -328q12 -92 12 -314v-632z" />
    <glyph glyph-name="union" unicode="&#x222a;" horiz-adv-x="1197" 
d="M70 1365h219v-638q0 -154 8 -236q11 -114 60 -178q41 -54 106 -85t136 -31q105 0 190 64q50 37 75 88t35 133q10 79 10 245v638h219v-632q0 -226 -12 -314q-29 -211 -201 -328q-133 -91 -316 -91q-182 0 -316 91q-172 117 -201 328q-12 92 -12 314v632z" />
    <glyph glyph-name="uni222E" unicode="&#x222e;" 
d="M149 -490l41 206q56 -21 97 -21q84 0 107 71q10 29 10 137v250q-74 13 -152 73q-63 49 -101 127q-41 85 -41 177q0 125 71 228q78 113 223 148v240q0 179 50 261q79 129 254 129q65 0 162 -22l-40 -205q-56 20 -99 20q-82 0 -106 -70q-9 -29 -9 -119v-234q94 -22 152 -68
q67 -53 106 -132q40 -83 40 -176q0 -126 -70 -228q-58 -84 -161 -129q-31 -14 -67 -20v-260q0 -116 -10 -172q-18 -104 -95 -169q-42 -35 -93 -49.5t-129 -14.5q-75 0 -140 22zM616 801v-540q61 17 101 53q92 82 92 216q0 146 -102 224q-47 36 -91 47zM404 261v539
q-56 -15 -96 -51q-93 -85 -93 -218q0 -68 27 -127.5t76 -97.5q46 -35 86 -45z" />
    <glyph glyph-name="similar" unicode="&#x223c;" 
d="M135 509l-116 94q109 254 290 254q75 0 235 -75q94 -44 121 -52q29 -8 53 -8q94 0 170 140l116 -95q-34 -81 -63 -120q-97 -132 -237 -132q-34 0 -78 14q-44 13 -166 71q-105 49 -162 49q-86 0 -163 -140z" />
    <glyph glyph-name="equivalence" unicode="&#x2261;" 
d="M68 1156h887v-202h-887v202zM68 784h887v-202h-887v202zM68 412h887v-202h-887v202z" />
    <glyph glyph-name="dotoperator" unicode="&#x22c5;" horiz-adv-x="535" 
d="M269 672q56 0 93 -30q43 -35 43 -88q0 -54 -43 -89q-37 -30 -94 -30q-58 0 -94 30q-43 36 -43 88q0 54 43 89q37 30 95 30z" />
    <glyph glyph-name="house" unicode="&#x2302;" horiz-adv-x="1538" 
d="M172 0v821l597 672l597 -672v-821h-1194zM276 104h986v672l-493 553l-493 -553v-672z" />
    <glyph glyph-name="revlogicalnot" unicode="&#x2310;" 
d="M292 0h-224v581h887v-202h-663v-379z" />
    <glyph glyph-name="uni2319" unicode="&#x2319;" 
d="M292 581v-379h663v-202h-887v581h224z" />
    <glyph glyph-name="integraltp" unicode="&#x2320;" 
d="M629 -512h-234v1532q1 162 2 189q3 140 65 217q88 110 258 110q63 0 152 -22l-40 -205q-46 20 -85 20q-83 0 -108 -70q-10 -29 -10 -133v-1638z" />
    <glyph glyph-name="integralbt" unicode="&#x2321;" 
d="M394 1536h234v-1531q-1 -169 -1 -190q-3 -140 -66 -217q-88 -110 -258 -110q-63 0 -152 22l41 206q46 -21 84 -21q83 0 108 70q10 29 10 133v1638z" />
    <glyph glyph-name="2500" unicode="&#x2500;" horiz-adv-x="2048" 
d="M0 444v135h2048v-135h-2048z" />
    <glyph glyph-name="2502" unicode="&#x2502;" horiz-adv-x="2048" 
d="M956 -512v2048h135v-2048h-135z" />
    <glyph glyph-name="250c" unicode="&#x250c;" horiz-adv-x="2048" 
d="M2048 579v-135h-957v-956h-135v1091h1092z" />
    <glyph glyph-name="2510" unicode="&#x2510;" horiz-adv-x="2048" 
d="M957 444h-957v135h1092v-1091h-135v956z" />
    <glyph glyph-name="2514" unicode="&#x2514;" horiz-adv-x="2048" 
d="M1091 579h957v-135h-1092v1092h135v-957z" />
    <glyph glyph-name="2518" unicode="&#x2518;" horiz-adv-x="2048" 
d="M0 444v135h957v957h135v-1092h-1092z" />
    <glyph glyph-name="251c" unicode="&#x251c;" horiz-adv-x="2048" 
d="M1091 579h957v-135h-957v-956h-135v2048h135v-957z" />
    <glyph glyph-name="2524" unicode="&#x2524;" horiz-adv-x="2048" 
d="M957 444h-957v135h957v957h135v-2048h-135v956z" />
    <glyph glyph-name="252c" unicode="&#x252c;" horiz-adv-x="2048" 
d="M1091 444v-956h-135v956h-956v135h2048v-135h-957z" />
    <glyph glyph-name="2534" unicode="&#x2534;" horiz-adv-x="2048" 
d="M956 579v957h135v-957h957v-135h-2048v135h956z" />
    <glyph glyph-name="253c" unicode="&#x253c;" horiz-adv-x="2048" 
d="M956 444h-956v135h956v957h135v-957h957v-135h-957v-956h-135v956z" />
    <glyph glyph-name="2550" unicode="&#x2550;" horiz-adv-x="2048" 
d="M0 309v135h2048v-135h-2048zM0 580v135h2048v-135h-2048z" />
    <glyph glyph-name="2551" unicode="&#x2551;" horiz-adv-x="2048" 
d="M821 -512v2048h135v-2048h-135zM1092 -512v2048h135v-2048h-135z" />
    <glyph glyph-name="2552" unicode="&#x2552;" horiz-adv-x="2048" 
d="M956 -512v1227h1092v-135h-957v-136h957v-135h-957v-821h-135z" />
    <glyph glyph-name="2553" unicode="&#x2553;" horiz-adv-x="2048" 
d="M1091 444h-135v-956h-135v1091h1227v-135h-822v-956h-135v956z" />
    <glyph glyph-name="2554" unicode="&#x2554;" horiz-adv-x="2048" 
d="M956 580v-1092h-135v1227h1227v-135h-1092zM1226 309v-821h-135v956h957v-135h-822z" />
    <glyph glyph-name="2555" unicode="&#x2555;" horiz-adv-x="2048" 
d="M957 309h-957v135h957v136h-957v135h1092v-1227h-135v821z" />
    <glyph glyph-name="2556" unicode="&#x2556;" horiz-adv-x="2048" 
d="M956 444v-956h-135v956h-821v135h1227v-1091h-135v956h-136z" />
    <glyph glyph-name="2557" unicode="&#x2557;" horiz-adv-x="2048" 
d="M1092 580h-1092v135h1227v-1227h-135v1092zM821 309h-821v135h956v-956h-135v821z" />
    <glyph glyph-name="2558" unicode="&#x2558;" horiz-adv-x="2048" 
d="M956 1536h135v-821h957v-135h-957v-136h957v-135h-1092v1227z" />
    <glyph glyph-name="2559" unicode="&#x2559;" horiz-adv-x="2048" 
d="M1091 579v957h135v-957h822v-135h-1227v1092h135v-957h135z" />
    <glyph glyph-name="255a" unicode="&#x255a;" horiz-adv-x="2048" 
d="M956 444h1092v-135h-1227v1227h135v-1092zM1226 715h822v-135h-957v956h135v-821z" />
    <glyph glyph-name="255b" unicode="&#x255b;" horiz-adv-x="2048" 
d="M957 715v821h135v-1227h-1092v135h957v136h-957v135h957z" />
    <glyph glyph-name="255c" unicode="&#x255c;" horiz-adv-x="2048" 
d="M956 579h136v957h135v-1092h-1227v135h821v957h135v-957z" />
    <glyph glyph-name="255d" unicode="&#x255d;" horiz-adv-x="2048" 
d="M1092 444v1092h135v-1227h-1227v135h1092zM821 715v821h135v-956h-956v135h821z" />
    <glyph glyph-name="255e" unicode="&#x255e;" horiz-adv-x="2048" 
d="M956 1536h135v-821h957v-135h-957v-136h957v-135h-957v-821h-135v2048z" />
    <glyph glyph-name="255f" unicode="&#x255f;" horiz-adv-x="2048" 
d="M1226 444v-956h-135v2048h135v-957h822v-135h-822zM956 -512h-135v2048h135v-2048z" />
    <glyph glyph-name="2560" unicode="&#x2560;" horiz-adv-x="2048" 
d="M821 -512v2048h135v-2048h-135zM1226 715h822v-135h-957v956h135v-821zM1226 309v-821h-135v956h957v-135h-822z" />
    <glyph glyph-name="2561" unicode="&#x2561;" horiz-adv-x="2048" 
d="M957 715v821h135v-2048h-135v821h-957v135h957v136h-957v135h957z" />
    <glyph glyph-name="2562" unicode="&#x2562;" horiz-adv-x="2048" 
d="M821 444h-821v135h821v957h135v-2048h-135v956zM1092 -512v2048h135v-2048h-135z" />
    <glyph glyph-name="2563" unicode="&#x2563;" horiz-adv-x="2048" 
d="M1227 -512h-135v2048h135v-2048zM821 715v821h135v-956h-956v135h821zM821 309h-821v135h956v-956h-135v821z" />
    <glyph glyph-name="2564" unicode="&#x2564;" horiz-adv-x="2048" 
d="M0 715h2048v-135h-2048v135zM956 309h-956v135h2048v-135h-957v-821h-135v821z" />
    <glyph glyph-name="2565" unicode="&#x2565;" horiz-adv-x="2048" 
d="M821 444h-821v135h2048v-135h-821v-956h-135v956h-136v-956h-135v956z" />
    <glyph glyph-name="2566" unicode="&#x2566;" horiz-adv-x="2048" 
d="M0 715h2048v-135h-2048v135zM1227 309v-821h-135v956h956v-135h-821zM821 309h-821v135h956v-956h-135v821z" />
    <glyph glyph-name="2567" unicode="&#x2567;" horiz-adv-x="2048" 
d="M0 309v135h2048v-135h-2048zM956 715v821h135v-821h957v-135h-2048v135h956z" />
    <glyph glyph-name="2568" unicode="&#x2568;" horiz-adv-x="2048" 
d="M0 444v135h821v957h135v-957h136v957h135v-957h821v-135h-2048z" />
    <glyph glyph-name="2569" unicode="&#x2569;" horiz-adv-x="2048" 
d="M0 309v135h2048v-135h-2048zM1227 715h821v-135h-956v956h135v-821zM821 715v821h135v-956h-956v135h821z" />
    <glyph glyph-name="256a" unicode="&#x256a;" horiz-adv-x="2048" 
d="M956 444v136h-956v135h956v821h135v-821h957v-135h-957v-136h957v-135h-957v-821h-135v821h-956v135h956z" />
    <glyph glyph-name="256b" unicode="&#x256b;" horiz-adv-x="2048" 
d="M821 444h-821v135h821v957h135v-957h136v957h135v-957h821v-135h-821v-956h-135v956h-136v-956h-135v956z" />
    <glyph glyph-name="256c" unicode="&#x256c;" horiz-adv-x="2048" 
d="M1227 715h821v-135h-956v956h135v-821zM821 715v821h135v-956h-956v135h821zM1227 309v-821h-135v956h956v-135h-821zM821 309h-821v135h956v-956h-135v821z" />
    <glyph glyph-name="upblock" unicode="&#x2580;" horiz-adv-x="2048" 
d="M0 512v1024h2048v-1024h-2048z" />
    <glyph glyph-name="dnblock" unicode="&#x2584;" horiz-adv-x="2048" 
d="M0 -512v1024h2048v-1024h-2048z" />
    <glyph glyph-name="block" unicode="&#x2588;" horiz-adv-x="2048" 
d="M0 -512v2048h2048v-2048h-2048z" />
    <glyph glyph-name="lfblock" unicode="&#x258c;" horiz-adv-x="2048" 
d="M0 -512v2048h1024v-2048h-1024z" />
    <glyph glyph-name="rtblock" unicode="&#x2590;" horiz-adv-x="2048" 
d="M1024 -512v2048h1024v-2048h-1024z" />
    <glyph glyph-name="ltshade" unicode="&#x2591;" horiz-adv-x="2048" 
d="M0 1536h205v-205h-205v205zM410 1536h205v-205h-205v205zM1638 1536h205v-205h-205v205zM819 1536h205v-205h-205v205zM1229 1536h205v-205h-205v205zM0 1126h205v-205h-205v205zM0 717h205v-205h-205v205zM0 307h205v-205h-205v205zM0 -102h205v-205h-205v205zM410 1126
h205v-205h-205v205zM410 717h205v-205h-205v205zM410 307h205v-205h-205v205zM410 -102h205v-205h-205v205zM819 1126h205v-205h-205v205zM819 717h205v-205h-205v205zM819 307h205v-205h-205v205zM819 -102h205v-205h-205v205zM1229 1126h205v-205h-205v205zM1229 717h205
v-205h-205v205zM1229 307h205v-205h-205v205zM1229 -102h205v-205h-205v205zM1638 1126h205v-205h-205v205zM1638 717h205v-205h-205v205zM1638 307h205v-205h-205v205zM1638 -102h205v-205h-205v205z" />
    <glyph glyph-name="shade" unicode="&#x2592;" horiz-adv-x="2048" 
d="M0 1536h205v-205h-205v205zM410 1536h205v-205h-205v205zM1638 1536h205v-205h-205v205zM819 1536h205v-205h-205v205zM1229 1536h205v-205h-205v205zM205 1331h205v-205h-205v205zM614 1331h205v-205h-205v205zM1024 1331h205v-205h-205v205zM1433 1331h205v-205h-205
v205zM1843 1331h205v-205h-205v205zM0 -102h205v-205h-205v205zM410 -102h205v-205h-205v205zM1638 -102h205v-205h-205v205zM819 -102h205v-205h-205v205zM1229 -102h205v-205h-205v205zM205 -307h205v-205h-205v205zM614 -307h205v-205h-205v205zM1024 -307h205v-205h-205
v205zM1433 -307h205v-205h-205v205zM1843 -307h205v-205h-205v205zM0 307h205v-205h-205v205zM410 307h205v-205h-205v205zM1638 307h205v-205h-205v205zM819 307h205v-205h-205v205zM1229 307h205v-205h-205v205zM205 103h205v-205h-205v205zM614 103h205v-205h-205v205z
M1024 103h205v-205h-205v205zM1433 103h205v-205h-205v205zM1843 103h205v-205h-205v205zM0 717h205v-205h-205v205zM410 717h205v-205h-205v205zM1638 717h205v-205h-205v205zM819 717h205v-205h-205v205zM1229 717h205v-205h-205v205zM205 512h205v-205h-205v205zM614 512
h205v-205h-205v205zM1024 512h205v-205h-205v205zM1433 512h205v-205h-205v205zM1843 512h205v-205h-205v205zM0 1126h205v-205h-205v205zM410 1126h205v-205h-205v205zM1638 1126h205v-205h-205v205zM819 1126h205v-205h-205v205zM1229 1126h205v-205h-205v205zM205 922
h205v-205h-205v205zM614 922h205v-205h-205v205zM1024 922h205v-205h-205v205zM1433 922h205v-205h-205v205zM1843 922h205v-205h-205v205z" />
    <glyph glyph-name="dkshade" unicode="&#x2593;" horiz-adv-x="2048" 
d="M2048 -512h-2048v205h205v205h-205v205h205v204h-205v205h205v205h-205v205h205v204h-205v205h205v205h205v-205h204v205h205v-205h205v205h205v-205h204v205h205v-205h205v205h205v-2048zM1843 1126h-205v-204h205v204zM1433 1126h-204v-204h204v204zM1024 1126h-205
v-204h205v204zM614 1126h-204v-204h204v204zM1843 717h-205v-205h205v205zM1433 717h-204v-205h204v205zM1024 717h-205v-205h205v205zM614 717h-204v-205h204v205zM1843 307h-205v-204h205v204zM1433 307h-204v-204h204v204zM1024 307h-205v-204h205v204zM614 307h-204
v-204h204v204zM1843 -102h-205v-205h205v205zM1433 -102h-204v-205h204v205zM1024 -102h-205v-205h205v205zM614 -102h-204v-205h204v205z" />
    <glyph glyph-name="filledbox" unicode="&#x25a0;" horiz-adv-x="1365" 
d="M1365 0h-1365v1365h1365v-1365z" />
    <glyph glyph-name="whitesquare" unicode="&#x25a1;" horiz-adv-x="1365" 
d="M1365 0h-1365v1365h1365v-1365zM1269 96v1173h-1173v-1173h1173z" />
    <glyph glyph-name="filledrect" unicode="&#x25ac;" horiz-adv-x="1365" 
d="M1365 683v-683h-1365v683h1365z" />
    <glyph glyph-name="blackverticalrect" unicode="&#x25ae;" horiz-adv-x="1365" 
d="M1024 0h-683v1365h683v-1365z" />
    <glyph glyph-name="uni25AF" unicode="&#x25af;" horiz-adv-x="1365" 
d="M690 1207q101 0 198.5 -40.5t171.5 -112.5q156 -153 156 -370q0 -216 -154 -370q-157 -156 -380 -156q-222 0 -378 156q-154 154 -154 369q0 221 155 370q161 154 385 154z" />
    <glyph glyph-name="triagup" unicode="&#x25b2;" horiz-adv-x="1365" 
d="M1297 137h-1229l615 1150z" />
    <glyph glyph-name="uni25B4" unicode="&#x25b4;" 
d="M956 300h-888l444 830z" />
    <glyph glyph-name="uni25B8" unicode="&#x25b8;" 
d="M146 243v888l830 -444z" />
    <glyph glyph-name="triagdn" unicode="&#x25bc;" horiz-adv-x="1365" 
d="M68 1229h1229l-615 -1150z" />
    <glyph glyph-name="uni25BE" unicode="&#x25be;" 
d="M68 1065h887l-443 -830z" />
    <glyph glyph-name="uni25C2" unicode="&#x25c2;" 
d="M878 1131v-888l-830 444z" />
    <glyph glyph-name="circle" unicode="&#x25cb;" horiz-adv-x="1365" 
d="M690 1207q101 0 198.5 -40.5t171.5 -112.5q156 -153 156 -370q0 -216 -154 -370q-157 -156 -380 -156q-222 0 -378 156q-154 154 -154 369q0 221 155 370q161 154 385 154zM678 1113q-176 0 -305 -127q-127 -124 -127 -302t126 -304q128 -128 311 -128q182 0 311 128
q126 127 126 303q0 181 -128 304q-131 126 -314 126z" />
    <glyph glyph-name="invbullet" unicode="&#x25d8;" horiz-adv-x="1365" 
d="M0 0v1365h1365v-1365h-1365zM680 969q-113 0 -195 -83q-84 -84 -84 -203q0 -120 84 -204q83 -83 198 -83q116 0 199 84q82 84 82 202q0 121 -83 204q-84 83 -201 83z" />
    <glyph glyph-name="invcircle" unicode="&#x25d9;" horiz-adv-x="1365" 
d="M1365 0h-1365v1365h1365v-1365zM676 1207q-101 0 -198.5 -40.5t-172.5 -113.5q-155 -152 -155 -368q0 -218 154 -371q156 -156 378 -156t379 156q154 154 154 369q0 104 -41 202t-115 169q-160 153 -383 153zM688 1113q175 0 304 -126q128 -125 128 -304
q0 -176 -127 -303q-128 -128 -311 -128q-182 0 -310 128q-127 126 -127 303q0 181 127 303q133 127 316 127z" />
    <glyph glyph-name="openbullet" unicode="&#x25e6;" 
d="M516 982q112 0 194 -83q83 -84 83 -203q0 -118 -82 -202q-83 -84 -199 -84t-198 83q-84 84 -84 203q0 121 84 203q84 83 202 83zM510 885q-75 0 -129 -55q-55 -55 -55 -134t55 -134t131 -55t131 55q54 56 54 134q0 80 -55 134q-55 55 -132 55z" />
    <glyph glyph-name="smileface" unicode="&#x263a;" horiz-adv-x="1365" 
d="M694 1331q131 0 254.5 -56.5t215.5 -158.5q167 -184 167 -433q0 -138 -56 -264t-158 -218q-185 -167 -435 -167q-137 0 -263.5 56t-218.5 158q-166 186 -166 440q0 280 215 476q183 167 445 167zM675 1245q-115 0 -222 -49t-187 -138q-145 -160 -145 -375
q0 -120 48.5 -229.5t137.5 -189.5q160 -144 376 -144q120 0 229.5 48.5t189.5 137.5q144 160 144 381q0 243 -186 413q-159 145 -385 145zM492 953q38 0 65 -30q23 -25 23 -60q0 -40 -30 -67q-25 -23 -60 -23q-40 0 -67 30q-23 26 -23 61q0 38 30 66q25 23 62 23zM889 954
q39 0 66 -30q23 -26 23 -60q0 -41 -30 -68q-26 -23 -60 -23q-41 0 -68 30q-23 26 -23 61q0 39 30 67q26 23 62 23zM1106 762q-10 -137 -34 -204q-50 -139 -160 -209q-96 -61 -228 -61q-224 0 -337 169q-46 68 -65 148q-12 52 -20 157q19 -82 44 -125q58 -97 155 -149
t223 -52q212 0 337 144q41 48 61 99q11 27 24 83z" />
    <glyph glyph-name="invsmileface" unicode="&#x263b;" horiz-adv-x="1365" 
d="M694 1331q131 0 254.5 -56.5t215.5 -158.5q167 -184 167 -433q0 -138 -56 -264t-158 -218q-185 -167 -435 -167q-137 0 -263.5 56t-218.5 158q-166 186 -166 440q0 280 215 476q183 167 445 167zM489 953q-39 0 -66 -30q-23 -26 -23 -60q0 -40 30 -67q25 -23 60 -23
q40 0 67 30q23 25 23 61q0 39 -30 66q-25 23 -61 23zM886 954q-39 0 -66 -30q-23 -26 -23 -61q0 -40 30 -68q26 -23 61 -23q40 0 67 30q23 26 23 62q0 39 -30 67q-25 23 -62 23zM1106 761q-19 -82 -44 -124q-58 -98 -155 -149.5t-223 -51.5q-212 0 -337 144q-41 48 -62 99
q-10 27 -23 82q10 -136 34 -203q50 -138 160 -209q96 -61 228 -61q224 0 337 169q46 69 65 148q12 52 20 156z" />
    <glyph glyph-name="sun" unicode="&#x263c;" horiz-adv-x="1365" 
d="M326 968l-153 152l72 72l154 -153q104 83 232 98v215h103v-216q135 -16 233 -96l153 152l72 -72l-153 -152q80 -100 96 -232h216v-105h-216q-16 -133 -96 -233l153 -153l-72 -72l-153 153q-102 -81 -233 -97v-215h-103v216q-119 12 -233 95l-153 -152l-72 72l152 152
q-81 101 -94 234h-216v105h215q16 129 96 232zM678 1010q-140 0 -238 -108q-84 -93 -84 -218q0 -146 108 -244q93 -84 219 -84q145 0 242 108q84 94 84 222q0 141 -108 240q-92 84 -223 84z" />
    <glyph glyph-name="female" unicode="&#x2640;" horiz-adv-x="1365" 
d="M632 644q-93 14 -166 68q-72 53 -112 133t-40 170q0 155 109 265q107 109 259 109t260 -108q110 -110 110 -266q0 -122 -72 -222q-91 -125 -250 -150v-214h334v-88h-334v-341h-98v341h-330v88h330v215zM681 1293q-110 0 -190 -80q-81 -81 -81 -197q0 -115 82 -197
q79 -80 191 -80q113 0 193 81t80 195q0 118 -80 197q-82 81 -195 81z" />
    <glyph glyph-name="male" unicode="&#x2642;" horiz-adv-x="1365" 
d="M856 712q73 -99 73 -225q0 -154 -108 -263q-107 -110 -260 -110q-151 0 -259 108q-110 111 -110 267t109 266q108 108 260 108q126 0 229 -81l309 309q-104 23 -216 82q-44 23 -44 47q0 25 27 25q11 0 41 -6q89 -17 169 -17q114 0 217 27q11 3 20 3q21 0 21 -21
q0 -8 -10 -46q-21 -80 -21 -180q0 -87 18 -172q6 -29 6 -40q0 -28 -26 -28q-15 0 -25 11q-42 48 -70 126q-31 83 -39 121zM558 767q-109 0 -189 -80q-81 -81 -81 -197q0 -115 81 -197q80 -80 192 -80q113 0 192 81q80 81 80 195q0 118 -80 197q-81 81 -195 81z" />
    <glyph glyph-name="spade" unicode="&#x2660;" horiz-adv-x="1365" 
d="M220 0v38q128 23 193 50q112 44 187 166q66 108 72 268q-17 -40 -27 -56q-34 -59 -97 -101q-80 -52 -170 -52q-98 0 -171 71q-77 75 -77 184q0 88 51 170.5t162 175.5q291 235 336 490q40 -118 64 -167q37 -77 102 -147q58 -63 142 -141q114 -103 156 -154
q92 -114 92 -231q0 -89 -54 -156q-76 -94 -195 -94q-173 0 -286 207q6 -100 28 -174q39 -126 149 -208q79 -61 285 -101v-38h-942z" />
    <glyph glyph-name="club" unicode="&#x2663;" horiz-adv-x="1365" 
d="M1149 0h-933v38q182 32 257 85q170 125 191 346q3 38 5 92q-45 -77 -69 -108q-56 -70 -137 -111.5t-163 -41.5q-129 0 -218 103q-76 87 -76 208q0 129 83 219q76 82 187 82q55 0 120 -31q12 -5 56 -27q-73 108 -73 203q0 122 90 209q87 85 214 85q124 0 210 -81
q93 -88 93 -214q0 -96 -73 -202q58 28 76 36q50 22 101 22q118 0 196 -93q74 -88 74 -207q0 -141 -98 -232q-86 -80 -198 -80q-108 0 -212 71q-68 47 -123 136q-9 14 -32 54q2 -128 28 -214q37 -121 145 -207q53 -43 125 -66q59 -18 154 -36v-38z" />
    <glyph glyph-name="heart" unicode="&#x2665;" horiz-adv-x="1365" 
d="M680 -22q-32 129 -97 245q-72 125 -165 251l-118 160q-91 124 -125 186q-60 110 -60 212q0 119 79 199q76 77 187 77q107 0 182 -66.5t117 -198.5q30 105 80 162q90 105 218 105q126 0 207 -93q66 -76 66 -173q0 -137 -99 -298q-40 -65 -126 -174q-293 -365 -346 -594z
" />
    <glyph glyph-name="diamond" unicode="&#x2666;" horiz-adv-x="1365" 
d="M682 1419q76 -144 283 -429q162 -221 237 -305q-51 -57 -267 -346q-148 -201 -253 -392q-41 85 -199 312q-86 124 -148 207q-73 95 -147 188l-24 31q46 54 261 337q154 206 257 397z" />
    <glyph glyph-name="musicalnote" unicode="&#x266a;" horiz-adv-x="1365" 
d="M626 319v1046h93v-124q26 -34 137 -167q186 -222 186 -459q0 -192 -116 -333h-58q67 159 67 305q0 89 -31 169t-85 132q-48 46 -100 54v-623q0 -125 -58 -207q-43 -61 -110 -95.5t-142 -34.5q-87 0 -121 53q-20 33 -20 69q0 52 27.5 104t72.5 85q67 49 148 49
q57 0 110 -23z" />
    <glyph glyph-name="uni266C" unicode="&#x266c;" horiz-adv-x="1365" 
d="M1261 393q-1 -97 -35 -166q-35 -70 -100 -115q-79 -55 -175 -55q-88 0 -120 53q-20 32 -20 69q0 53 27 104.5t72 84.5q67 49 146 49q60 0 111 -24v554l-675 -185v-483q0 -125 -58 -206q-43 -60 -110.5 -94.5t-142.5 -34.5q-87 0 -120 53q-20 31 -20 68q0 51 27.5 102.5
t72.5 83.5q67 49 148 49q56 0 110 -21v923l862 220v-1029zM492 918l675 185v142l-675 -185v-142z" />
    <glyph glyph-name="enonehalf" unicode="&#xea02;" horiz-adv-x="443" 
d="M0 647v71h443v-71h-443zM178 1277l-105 -44v41q0 10 -5 26l223 77q-6 -18 -6 -33v-506q0 -1 1 -12q1 -7 1 -11q0 -3 -1 -9h-110v7l2 25v439zM44 67q225 195 225 345q0 97 -99 97q-43 0 -102 -36l-11 68q80 27 139 27q86 0 131 -41q48 -44 48 -104q0 -145 -240 -347h204
q29 0 45 6v-82l-342 3l7 26z" />
    <glyph glyph-name="enonequarter" unicode="&#xea03;" horiz-adv-x="443" 
d="M0 647v71h443v-71h-443zM178 1277l-105 -44v41q0 10 -5 26l223 77q-6 -18 -6 -33v-506q0 -1 1 -12q1 -7 1 -11q0 -3 -1 -9h-110v7l2 25v439zM240 152h-223v69q9 9 20 26l191 286q10 15 15 27h107q1 -6 1 -7l-2 -25v-305h34q17 0 33 6v-80q-20 3 -35 3h-33v-120l3 -26
q0 -1 -1 -6h-112v7l2 25v120zM85 223h158v236z" />
    <glyph glyph-name="enthreequarters" unicode="&#xea04;" horiz-adv-x="443" 
d="M0 647v71h443v-71h-443zM60 906q59 -50 108 -50q46 0 72 31q23 29 23 78q0 48 -24 76q-27 31 -75 31q-10 0 -23 -1v64q18 -2 31 -2q40 0 62 30q19 27 19 64q0 88 -83 88q-38 0 -89 -37l-6 71q63 24 114 24q90 0 133 -46q36 -38 36 -93q0 -96 -95 -131q109 -31 109 -140
q0 -82 -61 -130q-46 -36 -125 -36q-66 0 -144 39zM240 152h-223v69q9 9 20 26l191 286q10 15 15 27h107q1 -6 1 -8l-2 -24v-305h34q17 0 33 6v-80q-20 3 -35 3h-33v-120l3 -26q0 -1 -1 -6h-112v7l2 25v120zM85 223h158v236z" />
    <glyph glyph-name="apostroph" unicode="&#xea06;" horiz-adv-x="538" 
d="M260 1392l177 -74l-220 -402l-132 57z" />
    <glyph glyph-name="uniEA11" unicode="&#xea11;" 
d="M296 1669q55 0 92 -25q35 -23 35 -70q0 -50 -37 -75q-36 -24 -93 -24q-62 0 -100 28q-31 23 -31 68t32 69q39 29 102 29zM734 1671q55 0 92 -25q35 -23 35 -70q0 -50 -37 -75q-36 -24 -92 -24q-63 0 -101 28q-31 23 -31 68q0 44 32 69q39 29 102 29z" />
    <glyph glyph-name="uniEA12" unicode="&#xea12;" 
d="M515 1669q55 0 92 -25q35 -23 35 -70q0 -50 -37 -75q-36 -24 -93 -24q-62 0 -100 28q-31 23 -31 68t32 69q39 29 102 29z" />
    <glyph glyph-name="uniEA13" unicode="&#xea13;" 
d="M513 1814q75 0 129 -54q53 -54 53 -131q0 -76 -53 -130q-54 -54 -131 -54q-76 0 -128 53q-54 57 -54 131q0 75 54 131q52 54 130 54zM510 1727q-41 0 -69 -29q-29 -30 -29 -69q0 -38 29 -68q28 -29 70 -29q43 0 72 29t29 68q0 40 -28 68q-30 30 -74 30z" />
    <glyph glyph-name="uniEA14" unicode="&#xea14;" 
d="M394 1444l139 316h179l-215 -316h-103z" />
    <glyph glyph-name="uniEA15" unicode="&#xea15;" 
d="M493 1444l-214 316h180l133 -316h-99z" />
    <glyph glyph-name="uniEA16" unicode="&#xea16;" 
d="M190 1469l261 270h134l249 -270h-153l-164 189l-172 -189h-155z" />
    <glyph glyph-name="uniEA17" unicode="&#xea17;" 
d="M190 1744h156l172 -189l165 189h151l-250 -270h-135z" />
    <glyph glyph-name="uniEA18" unicode="&#xea18;" 
d="M702 1741h127q-12 -78 -61 -138q-97 -120 -268 -120q-147 0 -234 102q-52 62 -67 156h121q14 -56 49 -90q54 -54 137 -54q93 0 156 72q28 31 40 72z" />
    <glyph glyph-name="uniEA19" unicode="&#xea19;" 
d="M221 1530v141q103 34 167 34q58 0 246 -47q31 -7 61 -7q47 0 107 35v-140q-70 -27 -115 -27q-36 0 -177 35q-81 20 -135 20q-65 0 -154 -44z" />
    <glyph glyph-name="uniEA1A" unicode="&#xea1a;" 
d="M283 1468l116 265h166l-191 -265h-91zM593 1468l116 265h166l-191 -265h-91z" />
    <glyph glyph-name="uniEA1B" unicode="&#xea1b;" 
d="M448 -407l87 309h162l-148 -309h-101z" />
    <glyph glyph-name="uniEA1C" unicode="&#xea1c;" 
d="M1022 -208l3 -112q-79 -42 -154 -42q-79 0 -132 53q-52 52 -52 127q0 58 41 121q10 16 43 61h118q-81 -85 -81 -158q0 -41 28 -69q25 -25 63 -25q57 0 123 44z" />
    <glyph glyph-name="uniEA1D" unicode="&#xea1d;" 
d="M191 1506v136h643v-136h-643z" />
    <glyph glyph-name="uniEA31" unicode="&#xea31;" 
d="M519 1569q182 0 312 -142q110 -122 110 -287q0 -191 -142 -319q-123 -110 -287 -110q-191 0 -319 142q-110 122 -110 291q0 185 142 315q121 110 294 110zM506 1517q-161 0 -274 -125q-97 -107 -97 -252q0 -168 125 -280q107 -97 252 -97q168 0 280 125q97 107 97 255
q0 163 -125 277q-106 97 -258 97zM722 1103q-5 -77 -49 -129q-59 -69 -162 -69q-108 0 -171 78q-52 64 -52 157q0 98 59 164q64 71 168 71q92 0 153 -62q43 -44 49 -111h-94q-18 94 -110 94q-63 0 -98 -51q-29 -42 -29 -105t27 -104q36 -52 99 -52q57 0 89 44q20 27 25 75
h96z" />
    <glyph glyph-name="uniEA32" unicode="&#xea32;" 
d="M519 1569q182 0 312 -142q110 -122 110 -287q0 -191 -142 -319q-123 -110 -287 -110q-191 0 -319 142q-110 122 -110 291q0 185 142 315q121 110 294 110zM506 1517q-161 0 -274 -125q-97 -107 -97 -252q0 -168 125 -280q107 -97 252 -97q168 0 280 125q97 107 97 255
q0 163 -125 277q-106 97 -258 97zM325 1365h213q70 0 107 -22q60 -36 60 -107t-62 -107q53 -26 58 -123q5 -67 10 -73l10 -18h-98q-10 16 -14 77q-3 69 -24 87q-20 16 -72 16h-93v-180h-95v450zM420 1295v-136h99q96 0 96 67q0 69 -94 69h-101z" />
    <glyph glyph-name="uniEA3F" unicode="&#xea3f;" 
d="M841 1491l158 -63l-191 -346l-118 47z" />
    <glyph glyph-name="uniEA66" unicode="&#xea66;" 
d="M375 -407l87 309h162l-148 -309h-101z" />
    <glyph glyph-name="uniEA67" unicode="&#xea67;" 
d="M759 1392l158 -62l-191 -346l-118 47z" />
    <glyph glyph-name="uniEA68" unicode="&#xea68;" 
d="M350 1669q53 0 87 -25q34 -24 34 -70q0 -49 -36 -75q-34 -24 -87 -24q-59 0 -95 28q-30 24 -30 68t31 69q36 29 96 29zM681 1671q52 0 87 -25q34 -24 34 -70q0 -49 -36 -75q-34 -24 -88 -24q-58 0 -95 28q-30 24 -30 68t31 69q36 29 97 29z" />
    <glyph glyph-name="uniEA6A" unicode="&#xea6a;" 
d="M350 1404q52 0 87 -25q34 -24 34 -70q0 -49 -36 -75q-34 -24 -87 -24q-59 0 -95 28q-30 24 -30 68t31 69q36 29 96 29zM681 1406q52 0 87 -25q34 -24 34 -70q0 -49 -36 -75q-34 -24 -87 -24q-60 0 -96 28q-30 24 -30 68t31 69q36 29 97 29z" />
    <glyph glyph-name="uniEA6B" unicode="&#xea6b;" horiz-adv-x="1151" 
d="M1102 1325v-184q-66 53 -113 79q-96 53 -213 53q-224 0 -341 -170q-112 -162 -112 -416q0 -271 128 -433q125 -158 332 -158q120 0 220 64q39 25 99 82v-180q-69 -32 -122 -49q-101 -33 -234 -33q-316 0 -485 175q-181 188 -181 537q0 164 41 284t127 212
q186 197 528 197q174 0 326 -60zM510 -407l87 309h163l-149 -309h-101z" />
    <glyph glyph-name="uniEA6C" unicode="&#xea6c;" horiz-adv-x="920" 
d="M865 57q-64 -28 -97 -41q-92 -35 -205 -35q-226 0 -350 140q-132 149 -132 401q0 288 167 443q137 126 359 126q122 0 258 -46v-156q-52 41 -83 59q-75 44 -162 44q-146 0 -227 -120q-87 -127 -87 -336q0 -182 66 -305q76 -141 236 -141q99 0 189 60q27 18 68 54v-147z
M355 -408l87 308h162l-148 -308h-101z" />
    <glyph glyph-name="uniEA6D" unicode="&#xea6d;" horiz-adv-x="959" 
d="M56 85l46 162q55 -47 91 -72q108 -75 234 -75q125 0 197 74q64 66 64 162q0 112 -91 181q-42 32 -207 110q-171 81 -241 161q-83 94 -83 220q0 90 41.5 168t116.5 130q114 79 295 79q154 0 318 -73l-43 -145q-158 109 -289 109q-104 0 -169 -66q-55 -57 -55 -137
q0 -95 81 -158q52 -41 202 -110q189 -86 256 -168q84 -104 84 -241q0 -93 -40.5 -178.5t-113.5 -143.5q-117 -94 -316 -94q-157 0 -299 64q-32 15 -79 41zM307 -407l87 309h162l-148 -309h-101z" />
    <glyph glyph-name="uniEA6E" unicode="&#xea6e;" horiz-adv-x="852" 
d="M49 72l36 145q57 -47 96 -71q102 -62 214 -62q98 0 153 56q51 53 51 122q0 76 -71 124q-41 29 -188 87q-159 63 -213 141q-50 73 -50 161q0 168 143 255q100 61 235 61q154 0 320 -71l-35 -132q-142 102 -265 102q-83 0 -137 -45q-58 -47 -58 -119q0 -65 54 -105
q37 -28 172 -79q157 -61 225 -127q71 -71 71 -191q0 -169 -127 -264q-105 -79 -283 -79q-173 0 -343 91zM276 -408l87 308h162l-148 -308h-101z" />
    <glyph glyph-name="ff" unicode="&#xfb00;" horiz-adv-x="1185" 
d="M156 967h-114v99h114v154q0 129 79 195q95 80 270 80q141 0 302 -49q91 49 209 49q104 0 255 -40l-42 -118q-98 52 -177 52q-72 0 -109 -39q-29 -31 -29 -104v-180h306v-99h-306v-902q0 -33 8 -65h-225q8 28 8 66v901h-340v-902q0 -34 8 -65h-225q8 30 8 66v901z
M705 1066v183q1 48 21 99q-93 41 -181 41q-97 0 -143 -47q-37 -38 -37 -124v-152h340z" />
    <glyph glyph-name="ffi" unicode="&#xfb03;" horiz-adv-x="1786" 
d="M157 968h-114v98h114v183q0 128 90 189q84 57 225 57q104 0 257 -40l-42 -118q-106 51 -175 51q-77 0 -114 -44q-25 -29 -25 -78v-200h305v-98h-305v-902q0 -34 8 -66h-232q8 29 8 66v902zM800 968h-114v98h114v183q0 128 90 189q84 57 225 57q105 0 257 -40l-42 -118
q-106 51 -175 51q-77 0 -114 -44q-25 -29 -25 -78v-200h305v-98h-305v-902q0 -34 8 -66h-232q8 30 8 66v902zM1540 1353q54 0 92 -25q35 -23 35 -69q0 -50 -37 -75q-36 -24 -92 -24q-63 0 -101 28q-31 23 -31 67q0 45 32 69q39 29 102 29zM1421 1066h228q-8 -30 -8 -65v-935
q0 -34 8 -66h-228q8 31 8 66v935q0 37 -8 65z" />
    <glyph glyph-name="ffl" unicode="&#xfb04;" horiz-adv-x="1764" 
d="M157 968h-114v98h114v183q0 128 90 189q84 57 225 57q104 0 257 -40l-42 -118q-106 51 -175 51q-77 0 -114 -44q-25 -29 -25 -78v-200h305v-98h-305v-902q0 -34 8 -66h-232q8 29 8 66v902zM800 968h-114v98h114v183q0 128 90 189q84 57 225 57q105 0 257 -40l-42 -118
q-106 51 -175 51q-77 0 -114 -44q-25 -29 -25 -78v-200h305v-98h-305v-902q0 -34 8 -66h-232q8 30 8 66v902zM1412 1472h226q-8 -29 -8 -66v-1340q0 -34 8 -66h-226q8 30 8 66v1340q0 37 -8 66z" />
    <glyph glyph-name="glyph527" 
d="M387 -408l87 308h162l-148 -308h-101z" />
    <glyph glyph-name="glyph528" horiz-adv-x="607" 
d="M168 968h-159v98h159v206l212 23q-4 -58 -4 -78v-151h172v-98h-172v-772q0 -94 77 -94q40 0 98 31v-110q-101 -42 -173 -42q-120 0 -173 66q-37 46 -37 124v797zM598 1757l-233 -312h-135l-221 312h153l137 -225l145 225h154z" />
    <glyph glyph-name="glyph529" 
d="M515 1189l-158 63l190 346l119 -47z" />
    <glyph glyph-name="glyph530" horiz-adv-x="558" 
 />
    </font>
</defs>
</svg>
